<?xml version="1.0" standalone="no"?>
<!DOCTYPE svg PUBLIC "-//W3C//DTD SVG 1.1//EN" "http://www.w3.org/Graphics/SVG/1.1/DTD/svg11.dtd" >
<svg>
<metadata>
Created by FontForge 20120702 at Mon Feb 18 12:59:55 2013

Copyright (c) 2010 by Dassault Systemes Company. All rights reserved.
</metadata>
<defs>
<font id="3dsLight-Regular" horiz-adv-x="605" >
  <font-face 
    font-family="3ds Light"
    font-weight="400"
    font-stretch="normal"
    units-per-em="1000"
    panose-1="2 0 5 3 2 0 0 2 0 4"
    ascent="800"
    descent="-200"
    x-height="479"
    cap-height="665"
    bbox="-30 -232 1182 1021"
    underline-thickness="50"
    underline-position="-50"
    unicode-range="U+000D-FB02"
  />
<missing-glyph horiz-adv-x="623" 
d="M116 0v665h391v-665h-391zM176 53h271v559h-271v-559z" />
    <glyph glyph-name="fi" unicode="fi" horiz-adv-x="559" 
d="M121 0v433h-81v46h81v91q0 79 49 121.5t134 42.5q43 0 80.5 -6t60.5 -12l-10 -49q-23 6 -58.5 11.5t-70.5 5.5q-61 0 -94.5 -26.5t-33.5 -87.5v-91h282v-479h-57v433h-225v-433h-57z" />
    <glyph glyph-name="fl" unicode="fl" horiz-adv-x="558" 
d="M121 0v433h-81v46h81v91q0 47 15 78.5t41 50.5t61 27t75 8q36 0 74.5 -6.5t71.5 -14.5v-713h-56v674q-20 4 -44 7t-46 3q-28 0 -52.5 -5t-43 -17.5t-29 -35t-10.5 -56.5v-91h141v-46h-141v-433h-57z" />
    <glyph glyph-name=".notdef" horiz-adv-x="623" 
d="M116 0v665h391v-665h-391zM176 53h271v559h-271v-559z" />
    <glyph glyph-name=".null" horiz-adv-x="0" 
 />
    <glyph glyph-name=".null" horiz-adv-x="0" 
 />
    <glyph glyph-name="nonmarkingreturn" unicode="&#xd;" horiz-adv-x="255" 
 />
    <glyph glyph-name="space" unicode=" " horiz-adv-x="255" 
 />
    <glyph glyph-name="uni00A0" unicode="&#xa0;" horiz-adv-x="255" 
 />
    <glyph glyph-name="A" unicode="A" horiz-adv-x="682" 
d="M100 0v432q0 52 12 97t40 77t74.5 50.5t114.5 18.5q69 0 115.5 -18.5t74 -50.5t39.5 -77t12 -97v-432h-60v264h-362v-264h-60zM160 317h362v114q0 40 -8 75t-28 60.5t-55 40.5t-90 15t-90 -15t-55.5 -40.5t-28 -60.5t-7.5 -75v-114z" />
    <glyph glyph-name="B" unicode="B" horiz-adv-x="626" 
d="M176 60q40 -8 79 -11.5t68 -3.5q48 0 80.5 9t52.5 26t28.5 41t8.5 54q0 67 -37 100t-133 33h-147v-248zM176 361h146q72 0 111.5 33.5t39.5 99.5q0 63 -37 90.5t-118 27.5h-142v-251zM116 665h202q105 0 161.5 -39.5t56.5 -131.5q0 -68 -29 -104t-71 -50
q24 -5 45.5 -16.5t38 -31t26 -48t9.5 -67.5q0 -41 -12.5 -75.5t-40.5 -59t-72 -38t-108 -13.5q-18 0 -42.5 2t-52 5t-56 7.5t-55.5 10.5v649z" />
    <glyph glyph-name="C" unicode="C" horiz-adv-x="578" 
d="M523 10q-43 -10 -90 -15t-86 -5q-63 0 -114 16.5t-87.5 56t-56 105t-19.5 163.5q0 101 20 167.5t57 105.5t89.5 55t118.5 16q43 0 84.5 -4.5t79.5 -11.5l-8 -53q-38 7 -79 11.5t-78 4.5q-53 0 -94 -12.5t-69.5 -45t-43 -89t-14.5 -143.5q0 -86 14.5 -142t42 -89t67.5 -46
t90 -13q39 0 83.5 5.5t86.5 13.5z" />
    <glyph glyph-name="D" unicode="D" horiz-adv-x="679" 
d="M116 665h202q70 0 124 -19t91 -59t56.5 -102.5t19.5 -148.5q0 -172 -70.5 -259t-218.5 -87q-51 0 -102 6.5t-102 18.5v650zM176 57q32 -6 68.5 -9t75.5 -3q54 0 96.5 16t71.5 51t44 90.5t15 134.5q0 73 -15.5 125.5t-45 85.5t-72 48.5t-96.5 15.5h-142v-555z" />
    <glyph glyph-name="E" unicode="E" horiz-adv-x="559" 
d="M264 0q-72 0 -113 35.5t-41 101.5v528h374v-53h-314v-242h277v-53h-277v-180q0 -45 24.5 -64.5t69.5 -19.5h235v-53h-235z" />
    <glyph glyph-name="F" unicode="F" horiz-adv-x="550" 
d="M116 0v665h374v-53h-314v-247h277v-53h-277v-312h-60z" />
    <glyph glyph-name="G" unicode="G" horiz-adv-x="675" 
d="M590 18q-53 -14 -115.5 -21t-119.5 -7q-67 0 -120 17.5t-89.5 58t-56 107t-19.5 164.5q0 178 71.5 258t215.5 80q72 0 124.5 -6t87.5 -12l-8 -54q-35 7 -86 13t-117 6q-57 0 -99.5 -15.5t-70.5 -50t-41.5 -89t-13.5 -132.5q0 -84 14.5 -140.5t42.5 -90t70 -48t97 -14.5
q22 0 46.5 1.5t48 3.5t43.5 5t34 6v254h-166v53h227v-347z" />
    <glyph glyph-name="H" unicode="H" horiz-adv-x="748" 
d="M116 0v665h60v-295h396v295h60v-665h-60v317h-396v-317h-60z" />
    <glyph glyph-name="I" unicode="I" horiz-adv-x="292" 
d="M116 0v665h60v-665h-60z" />
    <glyph glyph-name="J" unicode="J" horiz-adv-x="291" 
d="M-18 -154q38 33 64 60.5t41.5 52.5t22 49t6.5 50v607h60v-607q0 -37 -9 -68t-28 -60.5t-49.5 -60t-73.5 -66.5z" />
    <glyph glyph-name="K" unicode="K" horiz-adv-x="592" 
d="M116 0v665h60v-370l335 370h73l-267 -297q70 -20 115 -69t74 -115l81 -184h-67l-73 165q-26 60 -67 102t-104 53l-100 -102v-218h-60z" />
    <glyph glyph-name="L" unicode="L" horiz-adv-x="508" 
d="M116 0v665h60v-612h307v-53h-367z" />
    <glyph glyph-name="M" unicode="M" horiz-adv-x="904" 
d="M116 0v665h77l259 -390l259 390h77v-665h-58v589l-248 -374h-60l-248 374v-589h-58z" />
    <glyph glyph-name="N" unicode="N" horiz-adv-x="754" 
d="M116 0v665h52l412 -425v425h58v-665h-58v159l-406 417v-576h-58z" />
    <glyph glyph-name="O" unicode="O" horiz-adv-x="684" 
d="M226 8q-50 19 -84.5 59.5t-53 106t-18.5 158.5q0 94 18.5 159.5t53 106t85 59t115.5 18.5q64 0 115 -18.5t85.5 -59t53 -106t18.5 -159.5q0 -93 -18.5 -158.5t-53 -106t-85.5 -59t-115 -18.5q-65 0 -116 18zM186 106q27 -34 66 -49t90 -15t90 15t65.5 49t40 89.5
t13.5 136.5t-13.5 136.5t-40 89.5t-65.5 49t-90 15t-90 -15t-65.5 -49t-40 -89.5t-13.5 -136.5t13.5 -136.5t39.5 -89.5z" />
    <glyph glyph-name="P" unicode="P" horiz-adv-x="629" 
d="M176 315q39 -7 74 -10t67 -3q51 0 86.5 10t57 30t31 49.5t9.5 68.5q0 43 -10 72t-32 47t-55.5 25.5t-81.5 7.5h-146v-297zM116 0v665h206q59 0 104 -10t76 -34t46.5 -63.5t15.5 -97.5q0 -113 -64 -161.5t-184 -48.5q-32 0 -67 3.5t-73 9.5v-263h-60z" />
    <glyph glyph-name="Q" unicode="Q" horiz-adv-x="684" 
d="M296 -69q27 0 63.5 -8.5t73.5 -18t69.5 -18t51.5 -8.5q29 0 46.5 10t37.5 28l35 -40q-23 -25 -51 -38.5t-67 -13.5q-24 0 -59 8.5t-72 19t-71.5 19t-56.5 8.5v52zM226 8q-50 19 -84.5 59.5t-53 106t-18.5 158.5q0 94 18.5 159.5t53 106t85 59t115.5 18.5q64 0 115 -18.5
t85.5 -59t53 -106t18.5 -159.5q0 -93 -18.5 -158.5t-53 -106t-85.5 -59t-115 -18.5q-65 0 -116 18zM186 106q27 -34 66 -49t90 -15t90 15t65.5 49t40 89.5t13.5 136.5t-13.5 136.5t-40 89.5t-65.5 49t-90 15t-90 -15t-65.5 -49t-40 -89.5t-13.5 -136.5t13.5 -136.5
t39.5 -89.5z" />
    <glyph glyph-name="R" unicode="R" horiz-adv-x="648" 
d="M116 0v665h206q59 0 104 -9.5t76 -32.5t46.5 -61.5t15.5 -96.5q0 -82 -36.5 -126t-102.5 -63q32 -19 49.5 -45.5t36.5 -69.5l67 -161h-64l-61 148q-9 22 -21 42.5t-28 36t-37.5 25t-50.5 9.5q-32 0 -67 3.5t-73 9.5v-274h-60zM176 326q39 -7 74 -10t67 -3q51 0 86.5 9.5
t57 28t31 47t9.5 67.5q0 43 -10 71.5t-32 45t-55.5 23.5t-81.5 7h-146v-286z" />
    <glyph glyph-name="S" unicode="S" horiz-adv-x="561" 
d="M83 75q35 -12 89 -22.5t111 -10.5q63 0 102.5 20t39.5 70q0 36 -26 69t-65.5 64.5t-85 63t-85 64t-65.5 67.5t-26 74q0 45 18.5 72.5t48.5 42.5t69.5 20.5t81.5 5.5q46 0 92 -5.5t72 -10.5l-8 -54q-13 3 -32 6t-40.5 5.5t-43 4t-38.5 1.5q-31 0 -59 -2.5t-49.5 -11
t-34 -25t-12.5 -44.5q0 -31 26 -60.5t65 -59t84 -60.5t84 -64.5t65 -71.5t26 -82t-16 -73t-43.5 -46t-65.5 -24.5t-82 -7.5q-60 0 -116 10.5t-93 23.5z" />
    <glyph glyph-name="T" unicode="T" horiz-adv-x="564" 
d="M252 0v612h-232v53h524v-53h-232v-612h-60z" />
    <glyph glyph-name="U" unicode="U" horiz-adv-x="701" 
d="M165 234q0 -40 9.5 -75t32 -60.5t59.5 -40t92 -14.5q56 0 101.5 7.5t77.5 16.5v597h59v-635q-41 -13 -98 -26.5t-141 -13.5q-68 0 -116 18.5t-78 50.5t-44 76.5t-14 97.5v432h60v-431z" />
    <glyph glyph-name="V" unicode="V" horiz-adv-x="557" 
d="M257 0l-262 665h62l234 -602q34 65 66 137.5t60 149t49.5 156t34.5 159.5h56q-35 -188 -97.5 -350t-140.5 -315h-62z" />
    <glyph glyph-name="W" unicode="W" horiz-adv-x="893" 
d="M191 0l-178 665h61l154 -606l182 469h71l181 -469q62 143 100.5 290.5t63.5 315.5h54q-16 -98 -33.5 -184t-40 -165.5t-50 -157t-63.5 -158.5h-67l-181 467l-185 -467h-69z" />
    <glyph glyph-name="X" unicode="X" horiz-adv-x="559" 
d="M11 0l235 343l-217 322h70l186 -274l191 274h66l-224 -324l230 -341h-71l-199 293l-201 -293h-66z" />
    <glyph glyph-name="Y" unicode="Y" horiz-adv-x="537" 
d="M247 0v226l-257 439h71l223 -381q42 41 75 88t57.5 96.5t41 99.5t25.5 97h59q-28 -128 -88 -241.5t-149 -196.5v-227h-58z" />
    <glyph glyph-name="Z" unicode="Z" horiz-adv-x="602" 
d="M52 0v45l415 567h-401v53h475v-47l-410 -565h419v-53h-498z" />
    <glyph glyph-name="AE" unicode="&#xc6;" horiz-adv-x="971" 
d="M100 0v432q0 52 12 97t40 77t74.5 50.5t114.5 18.5q69 0 112 -19.5t69 -53.5v63h374v-53h-314v-242h277v-53h-277v-180q0 -45 27 -64.5t67 -19.5h235v-53h-235q-72 0 -113 35.5t-41 101.5v180h-362v-317h-60zM160 370h362v61q0 40 -8 75t-28 60.5t-55 40.5t-90 15
t-90 -15t-55.5 -40.5t-28 -60.5t-7.5 -75v-61z" />
    <glyph glyph-name="OE" unicode="&#x152;" horiz-adv-x="1000" 
d="M705 0q-60 0 -98.5 24.5t-50.5 71.5q-33 -55 -87 -80.5t-127 -25.5q-65 0 -115.5 18.5t-85 59t-53 106t-18.5 158.5q0 94 18.5 159.5t53 106t85 59t115.5 18.5q71 0 123 -23t86 -74v87h374v-53h-314v-242h277v-53h-277v-180q0 -45 27 -64.5t67 -19.5h235v-53h-235z
M186 106q27 -34 66 -49t90 -15t90 15t65.5 49t40 89.5t13.5 136.5t-13.5 136.5t-40 89.5t-65.5 49t-90 15t-90 -15t-65.5 -49t-40 -89.5t-13.5 -136.5t13.5 -136.5t39.5 -89.5z" />
    <glyph glyph-name="Lslash" unicode="&#x141;" horiz-adv-x="508" 
d="M116 0v275l-95 -37v55l95 37v335h60v-311l200 78v-55l-200 -78v-246h307v-53h-367z" />
    <glyph glyph-name="Oslash" unicode="&#xd8;" horiz-adv-x="684" 
d="M80 -26l61 94q-35 41 -53 105.5t-18 158.5t18.5 159.5t53 106t85 59t115.5 18.5q100 0 163 -44l56 87l42 -25l-61 -95q35 -41 53.5 -106t18.5 -160q0 -93 -18.5 -158.5t-53 -106t-85.5 -59t-115 -18.5q-50 0 -91.5 10.5t-73.5 33.5l-55 -85zM208 82q26 -21 59 -30.5
t75 -9.5q51 0 90 15t65.5 49t40 89.5t13.5 136.5q0 74 -11 125.5t-33 86.5zM474 583q-49 39 -132 39q-51 0 -90 -15t-65.5 -49t-40 -89.5t-13.5 -136.5q0 -73 10.5 -124.5t31.5 -86.5z" />
    <glyph glyph-name="Eth" unicode="&#xd0;" horiz-adv-x="678" 
d="M20 312v53h95v300h202q70 0 124 -19t91 -59t56.5 -102.5t19.5 -148.5q0 -172 -70.5 -259t-218.5 -87q-51 0 -102 6.5t-102 18.5v297h-95zM175 57q32 -6 68.5 -9t75.5 -3q54 0 96.5 16t71.5 51t44 90.5t15 134.5q0 73 -15.5 125.5t-45 85.5t-72 48.5t-96.5 15.5h-142v-247
h182v-53h-182v-255z" />
    <glyph glyph-name="Thorn" unicode="&#xde;" horiz-adv-x="629" 
d="M116 0v665h60v-118h146q59 0 104 -10t76 -34t46.5 -63.5t15.5 -97.5q0 -113 -64 -161.5t-184 -48.5q-32 0 -67 3.5t-73 9.5v-145h-60zM176 197q39 -7 74 -10t67 -3q51 0 86.5 10t57 30t31 49.5t9.5 68.5q0 43 -10 72t-32 47t-55.5 25.5t-81.5 7.5h-146v-297z" />
    <glyph glyph-name="a" unicode="a" horiz-adv-x="507" 
d="M421 24q-41 -11 -88 -21.5t-107 -10.5q-37 0 -70 8t-57.5 26t-39 46.5t-14.5 70.5q0 41 16 68t42 43t60.5 22.5t71.5 6.5q40 0 71.5 -3.5t57.5 -7.5v62q0 30 -11.5 50t-31 32t-44.5 16.5t-52 4.5q-32 0 -64 -4t-57 -9l-5 49q23 5 58.5 9.5t68.5 4.5q37 0 72.5 -7
t62.5 -24t43.5 -46.5t16.5 -74.5v-311zM364 221q-27 5 -61 8.5t-69 3.5q-26 0 -49.5 -3.5t-41.5 -14t-29 -29t-11 -48.5q0 -27 10 -45.5t27 -29.5t39.5 -16t47.5 -5q42 0 76.5 6t60.5 13v160z" />
    <glyph glyph-name="b" unicode="b" horiz-adv-x="563" 
d="M153 467q32 8 69.5 14t76.5 6q41 0 78 -11.5t65 -40t44.5 -76t16.5 -118.5q0 -75 -17.5 -123.5t-47 -76.5t-68.5 -39t-83 -11q-48 0 -97 9t-94 19v711h57v-263zM153 57q32 -6 66.5 -10.5t66.5 -4.5q35 0 64 8t49.5 30t32 60.5t11.5 100.5q0 58 -11 96t-30.5 60t-46 31
t-57.5 9q-35 0 -71.5 -6t-73.5 -15v-359z" />
    <glyph glyph-name="c" unicode="c" horiz-adv-x="464" 
d="M408 7q-34 -8 -63 -12t-64 -4q-47 0 -87.5 11.5t-70 40t-46.5 76.5t-17 120q0 73 16.5 120.5t45.5 76t70 40t89 11.5q32 0 64.5 -3.5t56.5 -8.5l-7 -50q-25 5 -55 8.5t-61 3.5q-35 0 -64 -8.5t-50 -30.5t-33 -60.5t-12 -98.5t12 -98t33.5 -60t50.5 -30.5t63 -8.5
q33 0 63 3.5t60 10.5z" />
    <glyph glyph-name="d" unicode="d" horiz-adv-x="562" 
d="M409 416q-37 10 -70 15.5t-68 5.5q-29 0 -56.5 -9t-48.5 -31t-34 -60t-13 -96q0 -62 11.5 -100.5t32.5 -60.5t49.5 -30t63.5 -8q32 0 66.5 4.5t66.5 10.5v359zM466 19q-45 -10 -94.5 -19t-96.5 -9q-44 0 -83 11t-68.5 39t-46.5 76.5t-17 123.5q0 71 18 118.5t47.5 76
t67.5 40t79 11.5q39 0 70.5 -5t66.5 -13v261h57v-711z" />
    <glyph glyph-name="e" unicode="e" horiz-adv-x="515" 
d="M121 230q0 -45 8 -80t29 -59t57 -36.5t92 -12.5q16 0 34.5 1.5t36.5 4t34.5 5.5t28.5 6l5 -49q-25 -7 -62.5 -12.5t-76.5 -5.5q-57 0 -102.5 10.5t-77.5 38.5t-49.5 76t-17.5 122q0 66 14.5 113t41.5 77t66 44t88 14q47 0 82.5 -14t59.5 -39.5t36 -60.5t12 -78v-65h-339z
M401 279q0 158 -132 158q-73 0 -107 -40t-40 -118h279z" />
    <glyph glyph-name="f" unicode="f" horiz-adv-x="366" 
d="M121 0v430h-81v49h81v91q0 84 49 123.5t131 39.5q20 0 42 -1.5t41 -4.5l-7 -49q-17 3 -37 4t-39 1q-26 0 -48.5 -5t-39 -18t-26 -35t-9.5 -55v-91h175v-49h-175v-430h-57z" />
    <glyph glyph-name="g" unicode="g" horiz-adv-x="563" 
d="M111 -123q39 -11 83 -17t79 -6q75 0 106 30.5t31 91.5v38q-32 -5 -66.5 -9.5t-70.5 -4.5q-42 0 -80.5 9.5t-68 36t-47 74.5t-17.5 125q0 70 18 117t48 74.5t70 39t84 11.5q49 0 94.5 -10t92.5 -24v-474q0 -91 -49 -133.5t-144 -42.5q-39 0 -85.5 5.5t-86.5 17.5zM410 416
q-12 3 -27.5 7t-33 7t-35.5 5t-33 2q-33 0 -62.5 -8t-51 -29t-34.5 -58.5t-13 -96.5q0 -62 11.5 -100.5t32 -59.5t48.5 -28t60 -7q33 0 68 4.5t70 10.5v351z" />
    <glyph glyph-name="h" unicode="h" horiz-adv-x="587" 
d="M99 0v730h57v-264q34 8 72 14.5t76 6.5t73 -8t62 -26.5t43 -49.5t16 -77v-326h-57v323q0 33 -11 55t-29.5 35t-44.5 18.5t-56 5.5q-37 0 -75 -6.5t-69 -14.5v-416h-57z" />
    <glyph glyph-name="i" unicode="i" horiz-adv-x="255" 
d="M127 627q-22 0 -32.5 11t-10.5 28t10.5 28t32.5 11t32.5 -11t10.5 -28t-10.5 -28t-32.5 -11zM99 0v479h57v-479h-57z" />
    <glyph glyph-name="j" unicode="j" horiz-adv-x="255" 
d="M-20 -158q39 34 62 60t36 50t17 48.5t4 54.5v424h57v-424q0 -42 -5.5 -72t-21 -57t-43.5 -55.5t-73 -66.5zM127 627q-22 0 -32.5 11t-10.5 28t10.5 28t32.5 11t32.5 -11t10.5 -28t-10.5 -28t-32.5 -11z" />
    <glyph glyph-name="k" unicode="k" horiz-adv-x="516" 
d="M99 0v730h57v-496l263 245h72l-203 -194q50 -11 83 -49t55 -85l70 -151h-63l-59 126q-10 21 -22.5 41.5t-28 37t-34.5 27.5t-43 14l-90 -79v-167h-57z" />
    <glyph glyph-name="l" unicode="l" horiz-adv-x="255" 
d="M99 0v730h57v-730h-57z" />
    <glyph glyph-name="m" unicode="m" horiz-adv-x="885" 
d="M99 0v453q42 11 93 22.5t102 11.5q41 0 77 -10.5t62 -34.5q38 20 85.5 32.5t95.5 12.5q36 0 69 -7.5t58 -26.5t40 -50t15 -77v-326h-57v323q0 34 -10 56t-27.5 35t-40.5 18t-48 5q-47 0 -86.5 -12.5t-64.5 -24.5q14 -31 14 -74v-326h-57v323q0 34 -10 56t-27.5 35
t-40.5 18t-48 5q-35 0 -71 -6.5t-66 -14.5v-416h-57z" />
    <glyph glyph-name="n" unicode="n" horiz-adv-x="587" 
d="M99 0v453q19 6 43.5 12t51 11t54.5 8t56 3q38 0 73 -8t62 -26.5t43 -49.5t16 -77v-326h-57v323q0 33 -11 55t-29.5 35t-44.5 18.5t-56 5.5q-37 0 -75 -6.5t-69 -14.5v-416h-57z" />
    <glyph glyph-name="o" unicode="o" horiz-adv-x="548" 
d="M274 -8q-102 0 -158 57.5t-56 189.5t56 190t158 58t158 -58t56 -190t-56 -189.5t-158 -57.5zM162 81q20 -22 48.5 -30.5t64.5 -8.5q35 0 63 8.5t48 31t31 60.5t11 97t-11 97t-31 60.5t-48 31.5t-63 9q-36 0 -64.5 -9t-48.5 -31.5t-31 -60.5t-11 -97t11 -97t31 -61z" />
    <glyph glyph-name="p" unicode="p" horiz-adv-x="566" 
d="M99 -188v641q47 14 99 24t98 10q44 0 82 -12t66.5 -40.5t45 -76t16.5 -117.5q0 -77 -17.5 -125.5t-47 -76t-68 -37.5t-80.5 -10q-36 0 -70.5 4.5t-66.5 9.5v-194h-57zM156 57q35 -6 70 -10.5t68 -4.5q32 0 60 7.5t48.5 29.5t32 61t11.5 101q0 59 -11 97t-31.5 60
t-48 30.5t-60.5 8.5q-15 0 -34.5 -2t-39 -5t-36.5 -7t-29 -7v-359z" />
    <glyph glyph-name="q" unicode="q" horiz-adv-x="566" 
d="M410 -188v194q-32 -5 -66.5 -9.5t-70.5 -4.5q-42 0 -80.5 10t-68 37.5t-47 76t-17.5 125.5q0 70 18 117.5t48 76t70 40.5t84 12q46 0 93 -10t94 -24v-641h-57zM410 416q-12 3 -27.5 7t-33 7t-35.5 5t-33 2q-33 0 -62.5 -8.5t-51 -30.5t-34.5 -60t-13 -97q0 -62 11.5 -101
t32 -61t48.5 -29.5t60 -7.5q33 0 69.5 4.5t68.5 10.5v359z" />
    <glyph glyph-name="r" unicode="r" horiz-adv-x="354" 
d="M99 0v453q68 20 125.5 27t109.5 7v-51q-45 0 -94.5 -5.5t-83.5 -15.5v-415h-57z" />
    <glyph glyph-name="s" unicode="s" horiz-adv-x="446" 
d="M68 70q32 -11 74.5 -19.5t89.5 -8.5q20 0 39.5 3t34.5 10.5t24 20.5t9 33q0 28 -21 48.5t-52.5 37.5t-68.5 33t-68.5 35.5t-52.5 44.5t-21 60q0 34 14.5 56.5t40 36.5t59 20t71.5 6t75 -3.5t60 -8.5l-6 -50q-22 4 -58 8t-69 4q-26 0 -49.5 -3t-41.5 -10.5t-28.5 -20.5
t-10.5 -33q0 -24 21 -41.5t53 -33.5t68.5 -33t68.5 -38t53 -49t21 -66q0 -61 -46 -89t-119 -28q-50 0 -95.5 8.5t-77.5 19.5z" />
    <glyph glyph-name="t" unicode="t" horiz-adv-x="365" 
d="M174 101q0 -33 22 -46t51 -13q26 0 50.5 5.5t42.5 10.5l3 -50q-19 -7 -45.5 -11.5t-53.5 -4.5q-25 0 -48 5.5t-40.5 18t-28 33.5t-10.5 53v328h-82v49h82l15 142h42v-142h149v-49h-149v-329z" />
    <glyph glyph-name="u" unicode="u" horiz-adv-x="571" 
d="M147 161q0 -34 11.5 -57t30 -36.5t43 -19.5t51.5 -6q36 0 73.5 6t61.5 13v418h57v-453q-39 -13 -90.5 -23.5t-103.5 -10.5q-38 0 -72.5 8.5t-60.5 28t-42 51t-16 78.5v321h57v-318z" />
    <glyph glyph-name="v" unicode="v" horiz-adv-x="475" 
d="M208 0l-198 479h59l174 -424q22 40 47.5 92.5t49 109.5t42.5 114.5t29 107.5h54q-16 -68 -37 -130.5t-46.5 -121.5t-54.5 -115.5t-61 -111.5h-58z" />
    <glyph glyph-name="w" unicode="w" horiz-adv-x="812" 
d="M178 0l-160 479h60l134 -424l162 424h64l160 -424q48 91 87 200.5t56 223.5h53q-20 -134 -65 -250.5t-104 -228.5h-60l-160 427l-162 -427h-65z" />
    <glyph glyph-name="x" unicode="x" horiz-adv-x="461" 
d="M15 0l182 243l-174 236h66l144 -193l143 193h64l-175 -234l181 -245h-66l-150 202l-152 -202h-63z" />
    <glyph glyph-name="y" unicode="y" horiz-adv-x="574" 
d="M119 -123q39 -11 83 -17t79 -6q75 0 106 30.5t31 91.5v38q-25 -5 -61 -9.5t-76 -4.5q-38 0 -72.5 8.5t-60.5 28t-42 51t-16 78.5v313h57v-310q0 -34 11.5 -57t30 -36.5t43 -19.5t51.5 -6q36 0 73.5 5t61.5 10v414h57v-500q0 -91 -48 -133.5t-145 -42.5q-39 0 -85.5 5.5
t-86.5 17.5z" />
    <glyph glyph-name="z" unicode="z" horiz-adv-x="483" 
d="M44 0v42l319 388h-311v49h384v-42l-317 -388h325v-49h-400z" />
    <glyph glyph-name="ae" unicode="&#xe6;" horiz-adv-x="814" 
d="M99 473q24 5 59 9.5t68 4.5q57 0 106 -17.5t72 -64.5q25 43 66 62.5t99 19.5q47 0 82.5 -14t59.5 -39.5t36 -60.5t12 -78v-65h-339q0 -45 8 -80t29 -59t57 -36.5t92 -12.5q16 0 35.5 1.5t38 4t35 5.5t25.5 6l5 -49q-25 -7 -62.5 -12.5t-76.5 -5.5q-58 0 -104.5 11.5
t-78.5 40.5q-41 -23 -89 -37.5t-107 -14.5q-38 0 -71 8t-57.5 26t-39 46.5t-14.5 70.5q0 41 16 68t42 43t60.5 22.5t71.5 6.5q33 0 68 -3.5t61 -7.5v62q0 30 -11.5 50t-31 32t-44.5 16.5t-52 4.5q-32 0 -63.5 -4t-56.5 -9zM390 86q-30 51 -31 136q-27 4 -59.5 7.5t-65.5 3.5
q-26 0 -49.5 -3.5t-41.5 -14t-29 -29t-11 -48.5q0 -27 10 -45.5t27 -29.5t39.5 -16t48.5 -5q21 0 43.5 3t44 9t41 14t33.5 18zM700 279q0 158 -132 158q-73 0 -107 -40t-40 -118h279z" />
    <glyph glyph-name="oe" unicode="&#x153;" horiz-adv-x="883" 
d="M489 230q0 -45 8 -80t29 -59t57 -36.5t92 -12.5q16 0 35.5 1.5t38 4t35 5.5t25.5 6l5 -49q-25 -7 -62.5 -12.5t-76.5 -5.5q-81 0 -136 22.5t-81 85.5q-23 -57 -69 -82.5t-115 -25.5q-102 0 -158 57.5t-56 189.5t56 190t158 58q69 0 115 -26t69 -83q23 57 68.5 83
t111.5 26q47 0 82.5 -14t59.5 -39.5t36 -60.5t12 -78v-65h-339zM162 81q20 -22 48.5 -30.5t64.5 -8.5q35 0 63 8.5t48 31t31 60.5t11 97t-11 97t-31 60.5t-48 31.5t-63 9q-36 0 -64.5 -9t-48.5 -31.5t-31 -60.5t-11 -97t11 -97t31 -61zM769 279q0 158 -132 158
q-73 0 -107 -40t-40 -118h279z" />
    <glyph glyph-name="lslash" unicode="&#x142;" horiz-adv-x="255" 
d="M99 0v328l-79 -31v54l79 31v348h57v-326l79 31v-54l-79 -31v-350h-57z" />
    <glyph glyph-name="oslash" unicode="&#xf8;" horiz-adv-x="538" 
d="M63 -61l60 98q-33 29 -50.5 78.5t-17.5 123.5q0 132 56 190t158 58q70 0 116 -26l49 79l41 -22l-52 -85q29 -30 44.5 -77.5t15.5 -116.5q0 -132 -56 -189.5t-158 -57.5q-64 0 -107 20l-58 -95zM358 416q-18 11 -40 16t-48 5q-36 0 -64.5 -9t-48.5 -31.5t-31 -60.5
t-11 -97q0 -57 10 -94t28 -60zM190 57q17 -8 37 -11.5t43 -3.5q35 0 63 8.5t48 31t31 60.5t11 97q0 51 -8 86t-23 58z" />
    <glyph glyph-name="eth" unicode="&#xf0;" horiz-adv-x="535" 
d="M174 557v46l153 28q-17 27 -37 51t-42 48h65q20 -21 36 -42t32 -46l104 20v-46l-79 -15q40 -83 58 -173t18 -184q0 -130 -55.5 -191t-158.5 -61q-48 0 -87 13t-67 42.5t-43.5 76.5t-15.5 115q0 132 57 190t157 58q50 0 86 -16t57 -45q-8 36 -23 82t-37 82zM157 82
q20 -22 48 -31t63 -9q34 0 63 9t49 31t31.5 59.5t11.5 94.5q0 43 -6 79.5t-22.5 63.5t-47 42.5t-79.5 15.5q-35 0 -63 -9t-48 -31.5t-31 -60.5t-11 -97q0 -58 11 -96t31 -61z" />
    <glyph glyph-name="thorn" unicode="&#xfe;" horiz-adv-x="560" 
d="M99 -188v918h57v-262q35 8 71.5 13.5t68.5 5.5q44 0 82 -12t66.5 -40.5t45 -76t16.5 -117.5q0 -77 -17.5 -125.5t-47 -76t-68 -37.5t-80.5 -10q-36 0 -70.5 4.5t-66.5 9.5v-194h-57zM156 57q35 -6 70 -10.5t68 -4.5q32 0 60 7.5t48.5 29.5t32 61t11.5 101q0 59 -11 97
t-31.5 60t-48 30.5t-60.5 8.5q-15 0 -34.5 -2t-39 -5t-36.5 -7t-29 -7v-359z" />
    <glyph glyph-name="germandbls" unicode="&#xdf;" horiz-adv-x="519" 
d="M100 0v574q0 79 44.5 121.5t132.5 42.5q81 0 128.5 -41t47.5 -112q0 -50 -19 -80t-42.5 -52t-42.5 -42.5t-19 -50.5q0 -21 14 -38t34.5 -34t45 -34t45 -37.5t34.5 -44.5t14 -55q0 -37 -13 -61t-35.5 -38.5t-52 -20t-62.5 -5.5q-27 0 -57 3.5t-55 11.5l6 48q24 -7 53 -11
t52 -4q49 0 77.5 15.5t28.5 62.5q0 23 -13.5 41.5t-34.5 35.5t-44.5 33.5t-44.5 35.5t-34.5 42t-13.5 53q0 27 9 47t22.5 36t29.5 30t29.5 30t22.5 36t9 48q0 55 -33 78.5t-86 23.5q-65 0 -92.5 -26.5t-27.5 -87.5v-574h-57z" />
    <glyph glyph-name="dotlessi" unicode="&#x131;" horiz-adv-x="255" 
d="M99 0v479h57v-479h-57z" />
    <glyph glyph-name="AEacute" unicode="&#x1fc;" horiz-adv-x="971" 
d="M100 0v432q0 52 12 97t40 77t74.5 50.5t114.5 18.5q69 0 112 -19.5t69 -53.5v63h374v-53h-314v-242h277v-53h-277v-180q0 -45 27 -64.5t67 -19.5h235v-53h-235q-72 0 -113 35.5t-41 101.5v180h-362v-317h-60zM160 370h362v61q0 40 -8 75t-28 60.5t-55 40.5t-90 15
t-90 -15t-55.5 -40.5t-28 -60.5t-7.5 -75v-61zM530 755l89 161h69l-102 -161h-56z" />
    <glyph glyph-name="Aacute" unicode="&#xc1;" horiz-adv-x="682" 
d="M100 0v432q0 52 12 97t40 77t74.5 50.5t114.5 18.5q69 0 115.5 -18.5t74 -50.5t39.5 -77t12 -97v-432h-60v264h-362v-264h-60zM160 317h362v114q0 40 -8 75t-28 60.5t-55 40.5t-90 15t-90 -15t-55.5 -40.5t-28 -60.5t-7.5 -75v-114zM311 755l89 161h69l-102 -161h-56z
" />
    <glyph glyph-name="Abreve" unicode="&#x102;" horiz-adv-x="682" 
d="M100 0v432q0 52 12 97t40 77t74.5 50.5t114.5 18.5q69 0 115.5 -18.5t74 -50.5t39.5 -77t12 -97v-432h-60v264h-362v-264h-60zM160 317h362v114q0 40 -8 75t-28 60.5t-55 40.5t-90 15t-90 -15t-55.5 -40.5t-28 -60.5t-7.5 -75v-114zM252 897q1 -32 21.5 -53.5t67.5 -21.5
t67.5 21.5t21.5 53.5h50q0 -31 -11 -54t-30 -38.5t-44.5 -23.5t-53.5 -8q-29 0 -54 8t-44 23.5t-30 38.5t-11 54h50z" />
    <glyph glyph-name="Acircumflex" unicode="&#xc2;" horiz-adv-x="682" 
d="M100 0v432q0 52 12 97t40 77t74.5 50.5t114.5 18.5q69 0 115.5 -18.5t74 -50.5t39.5 -77t12 -97v-432h-60v264h-362v-264h-60zM160 317h362v114q0 40 -8 75t-28 60.5t-55 40.5t-90 15t-90 -15t-55.5 -40.5t-28 -60.5t-7.5 -75v-114zM213 755l96 161h64l96 -161h-59
l-69 113l-69 -113h-59z" />
    <glyph glyph-name="Adieresis" unicode="&#xc4;" horiz-adv-x="682" 
d="M100 0v432q0 52 12 97t40 77t74.5 50.5t114.5 18.5q69 0 115.5 -18.5t74 -50.5t39.5 -77t12 -97v-432h-60v264h-362v-264h-60zM160 317h362v114q0 40 -8 75t-28 60.5t-55 40.5t-90 15t-90 -15t-55.5 -40.5t-28 -60.5t-7.5 -75v-114zM255 796q-22 0 -32.5 11t-10.5 28
t10.5 28t32.5 11t32.5 -11t10.5 -28t-10.5 -28t-32.5 -11zM428 796q-22 0 -32.5 11t-10.5 28t10.5 28t32.5 11q21 0 32 -11t11 -28t-11 -28t-32 -11z" />
    <glyph glyph-name="Agrave" unicode="&#xc0;" horiz-adv-x="682" 
d="M100 0v432q0 52 12 97t40 77t74.5 50.5t114.5 18.5q69 0 115.5 -18.5t74 -50.5t39.5 -77t12 -97v-432h-60v264h-362v-264h-60zM160 317h362v114q0 40 -8 75t-28 60.5t-55 40.5t-90 15t-90 -15t-55.5 -40.5t-28 -60.5t-7.5 -75v-114zM310 755l-102 161h70l89 -161h-57z
" />
    <glyph glyph-name="Amacron" unicode="&#x100;" horiz-adv-x="682" 
d="M100 0v432q0 52 12 97t40 77t74.5 50.5t114.5 18.5q69 0 115.5 -18.5t74 -50.5t39.5 -77t12 -97v-432h-60v264h-362v-264h-60zM160 317h362v114q0 40 -8 75t-28 60.5t-55 40.5t-90 15t-90 -15t-55.5 -40.5t-28 -60.5t-7.5 -75v-114zM224 810v50h234v-50h-234z" />
    <glyph glyph-name="Aogonek" unicode="&#x104;" horiz-adv-x="682" 
d="M100 0v432q0 52 12 97t40 77t74.5 50.5t114.5 18.5q69 0 115.5 -18.5t74 -50.5t39.5 -77t12 -97v-432q-6 -7 -14.5 -18t-16 -23.5t-13 -26t-5.5 -25.5q0 -18 11 -24.5t28 -6.5q8 0 22.5 2t25.5 6l8 -46q-11 -5 -27 -8t-33 -3q-33 0 -59.5 16.5t-26.5 54.5q0 37 16.5 62.5
t28.5 39.5h-5v264h-362v-264h-60zM160 317h362v114q0 40 -8 75t-28 60.5t-55 40.5t-90 15t-90 -15t-55.5 -40.5t-28 -60.5t-7.5 -75v-114z" />
    <glyph glyph-name="Aring" unicode="&#xc5;" horiz-adv-x="682" 
d="M100 0v432q0 52 12 97t40 77t74.5 50.5t114.5 18.5q69 0 115.5 -18.5t74 -50.5t39.5 -77t12 -97v-432h-60v264h-362v-264h-60zM160 317h362v114q0 40 -8 75t-28 60.5t-55 40.5t-90 15t-90 -15t-55.5 -40.5t-28 -60.5t-7.5 -75v-114zM272 777q-24 22 -24 59t24.5 59
t68.5 22t68.5 -22t24.5 -59t-24.5 -59t-68.5 -22t-69 22zM306 805q11 -11 35 -11t34.5 11t10.5 31t-10.5 31t-34.5 11t-34.5 -11t-10.5 -31t10 -31z" />
    <glyph glyph-name="Aringacute" unicode="&#x1fa;" horiz-adv-x="682" 
d="M369 914q31 -7 48 -27.5t17 -50.5q0 -37 -24.5 -59t-68.5 -22t-68.5 22t-24.5 59q0 32 18 52.5t51 26.5l59 106h69zM306 805q11 -11 35 -11t34.5 11t10.5 31t-10.5 31t-34.5 11t-34.5 -11t-10.5 -31t10 -31zM100 0v432q0 52 12 97t40 77t74.5 50.5t114.5 18.5
q69 0 115.5 -18.5t74 -50.5t39.5 -77t12 -97v-432h-60v264h-362v-264h-60zM160 317h362v114q0 40 -8 75t-28 60.5t-55 40.5t-90 15t-90 -15t-55.5 -40.5t-28 -60.5t-7.5 -75v-114z" />
    <glyph glyph-name="Atilde" unicode="&#xc3;" horiz-adv-x="682" 
d="M100 0v432q0 52 12 97t40 77t74.5 50.5t114.5 18.5q69 0 115.5 -18.5t74 -50.5t39.5 -77t12 -97v-432h-60v264h-362v-264h-60zM160 317h362v114q0 40 -8 75t-28 60.5t-55 40.5t-90 15t-90 -15t-55.5 -40.5t-28 -60.5t-7.5 -75v-114zM197 806q11 31 29.5 49.5t53.5 18.5
q19 0 36 -5t32.5 -11.5t29.5 -11.5t27 -5q18 0 23.5 13t10.5 25l46 -14q-9 -37 -27.5 -54.5t-53.5 -17.5q-15 0 -31.5 5t-33.5 11.5t-32 11.5t-27 5q-19 0 -26 -10.5t-12 -23.5z" />
    <glyph glyph-name="Cacute" unicode="&#x106;" horiz-adv-x="578" 
d="M523 10q-43 -10 -90 -15t-86 -5q-63 0 -114 16.5t-87.5 56t-56 105t-19.5 163.5q0 101 20 167.5t57 105.5t89.5 55t118.5 16q43 0 84.5 -4.5t79.5 -11.5l-8 -53q-38 7 -79 11.5t-78 4.5q-53 0 -94 -12.5t-69.5 -45t-43 -89t-14.5 -143.5q0 -86 14.5 -142t42 -89t67.5 -46
t90 -13q39 0 83.5 5.5t86.5 13.5zM294 755l89 161h69l-102 -161h-56z" />
    <glyph glyph-name="Ccaron" unicode="&#x10c;" horiz-adv-x="578" 
d="M523 10q-43 -10 -90 -15t-86 -5q-63 0 -114 16.5t-87.5 56t-56 105t-19.5 163.5q0 101 20 167.5t57 105.5t89.5 55t118.5 16q43 0 84.5 -4.5t79.5 -11.5l-8 -53q-38 7 -79 11.5t-78 4.5q-53 0 -94 -12.5t-69.5 -45t-43 -89t-14.5 -143.5q0 -86 14.5 -142t42 -89t67.5 -46
t90 -13q39 0 83.5 5.5t86.5 13.5zM288 755l-96 161h59l69 -113l69 113h59l-96 -161h-64z" />
    <glyph glyph-name="Ccedilla" unicode="&#xc7;" horiz-adv-x="578" 
d="M523 10q-43 -10 -90 -15t-86 -5q-63 0 -114 16.5t-87.5 56t-56 105t-19.5 163.5q0 101 20 167.5t57 105.5t89.5 55t118.5 16q43 0 84.5 -4.5t79.5 -11.5l-8 -53q-38 7 -79 11.5t-78 4.5q-53 0 -94 -12.5t-69.5 -45t-43 -89t-14.5 -143.5q0 -86 14.5 -142t42 -89t67.5 -46
t90 -13q39 0 83.5 5.5t86.5 13.5zM247 -141q12 -5 24.5 -7.5t22.5 -2.5q19 0 25 6.5t6 20.5q0 16 -8 34t-18 37h52q12 -19 20 -38.5t8 -36.5q0 -32 -17.5 -50t-59.5 -18q-15 0 -34.5 3.5t-31.5 8.5z" />
    <glyph glyph-name="Ccircumflex" unicode="&#x108;" horiz-adv-x="578" 
d="M523 10q-43 -10 -90 -15t-86 -5q-63 0 -114 16.5t-87.5 56t-56 105t-19.5 163.5q0 101 20 167.5t57 105.5t89.5 55t118.5 16q43 0 84.5 -4.5t79.5 -11.5l-8 -53q-38 7 -79 11.5t-78 4.5q-53 0 -94 -12.5t-69.5 -45t-43 -89t-14.5 -143.5q0 -86 14.5 -142t42 -89t67.5 -46
t90 -13q39 0 83.5 5.5t86.5 13.5zM192 755l96 161h64l96 -161h-59l-69 113l-69 -113h-59z" />
    <glyph glyph-name="Cdotaccent" unicode="&#x10a;" horiz-adv-x="578" 
d="M523 10q-43 -10 -90 -15t-86 -5q-63 0 -114 16.5t-87.5 56t-56 105t-19.5 163.5q0 101 20 167.5t57 105.5t89.5 55t118.5 16q43 0 84.5 -4.5t79.5 -11.5l-8 -53q-38 7 -79 11.5t-78 4.5q-53 0 -94 -12.5t-69.5 -45t-43 -89t-14.5 -143.5q0 -86 14.5 -142t42 -89t67.5 -46
t90 -13q39 0 83.5 5.5t86.5 13.5zM320 797q-22 0 -32.5 11t-10.5 28t10.5 28t32.5 11t32.5 -11t10.5 -28t-10.5 -28t-32.5 -11z" />
    <glyph glyph-name="Dcaron" unicode="&#x10e;" horiz-adv-x="679" 
d="M116 665h202q70 0 124 -19t91 -59t56.5 -102.5t19.5 -148.5q0 -172 -70.5 -259t-218.5 -87q-51 0 -102 6.5t-102 18.5v650zM176 57q32 -6 68.5 -9t75.5 -3q54 0 96.5 16t71.5 51t44 90.5t15 134.5q0 73 -15.5 125.5t-45 85.5t-72 48.5t-96.5 15.5h-142v-555zM308 755
l-96 161h59l69 -113l69 113h59l-96 -161h-64z" />
    <glyph glyph-name="Dcroat" unicode="&#x110;" horiz-adv-x="678" 
d="M20 312v53h95v300h202q70 0 124 -19t91 -59t56.5 -102.5t19.5 -148.5q0 -172 -70.5 -259t-218.5 -87q-51 0 -102 6.5t-102 18.5v297h-95zM175 57q32 -6 68.5 -9t75.5 -3q54 0 96.5 16t71.5 51t44 90.5t15 134.5q0 73 -15.5 125.5t-45 85.5t-72 48.5t-96.5 15.5h-142v-247
h182v-53h-182v-255z" />
    <glyph glyph-name="Eacute" unicode="&#xc9;" horiz-adv-x="559" 
d="M264 0q-72 0 -113 35.5t-41 101.5v528h374v-53h-314v-242h277v-53h-277v-180q0 -45 24.5 -64.5t69.5 -19.5h235v-53h-235zM274 755l89 161h69l-102 -161h-56z" />
    <glyph glyph-name="Ebreve" unicode="&#x114;" horiz-adv-x="559" 
d="M264 0q-72 0 -113 35.5t-41 101.5v528h374v-53h-314v-242h277v-53h-277v-180q0 -45 24.5 -64.5t69.5 -19.5h235v-53h-235zM209 897q1 -32 21.5 -53.5t67.5 -21.5t67.5 21.5t21.5 53.5h50q0 -31 -11 -54t-30 -38.5t-44.5 -23.5t-53.5 -8q-29 0 -54 8t-44 23.5t-30 38.5
t-11 54h50z" />
    <glyph glyph-name="Ecaron" unicode="&#x11a;" horiz-adv-x="559" 
d="M264 0q-72 0 -113 35.5t-41 101.5v528h374v-53h-314v-242h277v-53h-277v-180q0 -45 24.5 -64.5t69.5 -19.5h235v-53h-235zM266 755l-96 161h59l69 -113l69 113h59l-96 -161h-64z" />
    <glyph glyph-name="Ecircumflex" unicode="&#xca;" horiz-adv-x="559" 
d="M264 0q-72 0 -113 35.5t-41 101.5v528h374v-53h-314v-242h277v-53h-277v-180q0 -45 24.5 -64.5t69.5 -19.5h235v-53h-235zM167 755l96 161h64l96 -161h-59l-69 113l-69 -113h-59z" />
    <glyph glyph-name="Edieresis" unicode="&#xcb;" horiz-adv-x="559" 
d="M264 0q-72 0 -113 35.5t-41 101.5v528h374v-53h-314v-242h277v-53h-277v-180q0 -45 24.5 -64.5t69.5 -19.5h235v-53h-235zM212 796q-22 0 -32.5 11t-10.5 28t10.5 28t32.5 11t32.5 -11t10.5 -28t-10.5 -28t-32.5 -11zM385 796q-22 0 -32.5 11t-10.5 28t10.5 28t32.5 11
q21 0 32 -11t11 -28t-11 -28t-32 -11z" />
    <glyph glyph-name="Edotaccent" unicode="&#x116;" horiz-adv-x="559" 
d="M264 0q-72 0 -113 35.5t-41 101.5v528h374v-53h-314v-242h277v-53h-277v-180q0 -45 24.5 -64.5t69.5 -19.5h235v-53h-235zM298 797q-22 0 -32.5 11t-10.5 28t10.5 28t32.5 11t32.5 -11t10.5 -28t-10.5 -28t-32.5 -11z" />
    <glyph glyph-name="Egrave" unicode="&#xc8;" horiz-adv-x="559" 
d="M264 0q-72 0 -113 35.5t-41 101.5v528h374v-53h-314v-242h277v-53h-277v-180q0 -45 24.5 -64.5t69.5 -19.5h235v-53h-235zM278 755l-102 161h70l89 -161h-57z" />
    <glyph glyph-name="Emacron" unicode="&#x112;" horiz-adv-x="559" 
d="M264 0q-72 0 -113 35.5t-41 101.5v528h374v-53h-314v-242h277v-53h-277v-180q0 -45 24.5 -64.5t69.5 -19.5h235v-53h-235zM181 810v50h234v-50h-234z" />
    <glyph glyph-name="Eogonek" unicode="&#x118;" horiz-adv-x="559" 
d="M264 0q-72 0 -113 35.5t-41 101.5v528h374v-53h-314v-242h277v-53h-277v-180q0 -45 24.5 -64.5t69.5 -19.5h235v-53h-39q-6 -7 -14.5 -18t-16 -23.5t-13 -26t-5.5 -25.5q0 -18 13.5 -24.5t30.5 -6.5q8 0 20 1.5t23 5.5l8 -45q-11 -5 -27 -8t-33 -3q-33 0 -59.5 16.5
t-26.5 54.5q0 37 16.5 62.5t28.5 39.5h-141z" />
    <glyph glyph-name="Gbreve" unicode="&#x11e;" horiz-adv-x="675" 
d="M590 18q-53 -14 -115.5 -21t-119.5 -7q-67 0 -120 17.5t-89.5 58t-56 107t-19.5 164.5q0 178 71.5 258t215.5 80q72 0 124.5 -6t87.5 -12l-8 -54q-35 7 -86 13t-117 6q-57 0 -99.5 -15.5t-70.5 -50t-41.5 -89t-13.5 -132.5q0 -84 14.5 -140.5t42.5 -90t70 -48t97 -14.5
q22 0 46.5 1.5t48 3.5t43.5 5t34 6v254h-166v53h227v-347zM248 897q1 -32 21.5 -53.5t67.5 -21.5t67.5 21.5t21.5 53.5h50q0 -31 -11 -54t-30 -38.5t-44.5 -23.5t-53.5 -8q-29 0 -54 8t-44 23.5t-30 38.5t-11 54h50z" />
    <glyph glyph-name="Gcircumflex" unicode="&#x11c;" horiz-adv-x="675" 
d="M590 18q-53 -14 -115.5 -21t-119.5 -7q-67 0 -120 17.5t-89.5 58t-56 107t-19.5 164.5q0 178 71.5 258t215.5 80q72 0 124.5 -6t87.5 -12l-8 -54q-35 7 -86 13t-117 6q-57 0 -99.5 -15.5t-70.5 -50t-41.5 -89t-13.5 -132.5q0 -84 14.5 -140.5t42.5 -90t70 -48t97 -14.5
q22 0 46.5 1.5t48 3.5t43.5 5t34 6v254h-166v53h227v-347zM209 755l96 161h64l96 -161h-59l-69 113l-69 -113h-59z" />
    <glyph glyph-name="Gcommaaccent" unicode="&#x122;" horiz-adv-x="675" 
d="M590 18q-53 -14 -115.5 -21t-119.5 -7q-67 0 -120 17.5t-89.5 58t-56 107t-19.5 164.5q0 178 71.5 258t215.5 80q72 0 124.5 -6t87.5 -12l-8 -54q-35 7 -86 13t-117 6q-57 0 -99.5 -15.5t-70.5 -50t-41.5 -89t-13.5 -132.5q0 -84 14.5 -140.5t42.5 -90t70 -48t97 -14.5
q22 0 46.5 1.5t48 3.5t43.5 5t34 6v254h-166v53h227v-347zM264 -188l83 142h66l-93 -142h-56z" />
    <glyph glyph-name="Gdotaccent" unicode="&#x120;" horiz-adv-x="675" 
d="M590 18q-53 -14 -115.5 -21t-119.5 -7q-67 0 -120 17.5t-89.5 58t-56 107t-19.5 164.5q0 178 71.5 258t215.5 80q72 0 124.5 -6t87.5 -12l-8 -54q-35 7 -86 13t-117 6q-57 0 -99.5 -15.5t-70.5 -50t-41.5 -89t-13.5 -132.5q0 -84 14.5 -140.5t42.5 -90t70 -48t97 -14.5
q22 0 46.5 1.5t48 3.5t43.5 5t34 6v254h-166v53h227v-347zM337 797q-22 0 -32.5 11t-10.5 28t10.5 28t32.5 11t32.5 -11t10.5 -28t-10.5 -28t-32.5 -11z" />
    <glyph glyph-name="Hbar" unicode="&#x126;" horiz-adv-x="746" 
d="M115 0v486h-95v51h95v128h60v-128h396v128h60v-128h95v-51h-95v-486h-60v317h-396v-317h-60zM175 370h396v116h-396v-116z" />
    <glyph glyph-name="Hcircumflex" unicode="&#x124;" horiz-adv-x="748" 
d="M116 0v665h60v-295h396v295h60v-665h-60v317h-396v-317h-60zM246 755l96 161h64l96 -161h-59l-69 113l-69 -113h-59z" />
    <glyph glyph-name="Iacute" unicode="&#xcd;" horiz-adv-x="291" 
d="M116 0v665h60v-665h-60zM119 755l89 161h69l-102 -161h-56z" />
    <glyph glyph-name="Ibreve" unicode="&#x12c;" horiz-adv-x="291" 
d="M116 0v665h60v-665h-60zM58 897q1 -32 21.5 -53.5t67.5 -21.5t67.5 21.5t21.5 53.5h50q0 -31 -11 -54t-30 -38.5t-44.5 -23.5t-53.5 -8q-29 0 -54 8t-44 23.5t-30 38.5t-11 54h50z" />
    <glyph glyph-name="Icircumflex" unicode="&#xce;" horiz-adv-x="291" 
d="M116 0v665h60v-665h-60zM18 755l96 161h64l96 -161h-59l-69 113l-69 -113h-59z" />
    <glyph glyph-name="Idieresis" unicode="&#xcf;" horiz-adv-x="291" 
d="M116 0v665h60v-665h-60zM61 796q-22 0 -32.5 11t-10.5 28t10.5 28t32.5 11t32.5 -11t10.5 -28t-10.5 -28t-32.5 -11zM234 796q-22 0 -32.5 11t-10.5 28t10.5 28t32.5 11q21 0 32 -11t11 -28t-11 -28t-32 -11z" />
    <glyph glyph-name="Idotaccent" unicode="&#x130;" horiz-adv-x="291" 
d="M116 0v665h60v-665h-60zM147 797q-22 0 -32.5 11t-10.5 28t10.5 28t32.5 11t32.5 -11t10.5 -28t-10.5 -28t-32.5 -11z" />
    <glyph glyph-name="Igrave" unicode="&#xcc;" horiz-adv-x="291" 
d="M116 0v665h60v-665h-60zM116 755l-102 161h70l89 -161h-57z" />
    <glyph glyph-name="Imacron" unicode="&#x12a;" horiz-adv-x="291" 
d="M116 0v665h60v-665h-60zM30 810v50h234v-50h-234z" />
    <glyph glyph-name="Iogonek" unicode="&#x12e;" horiz-adv-x="291" 
d="M222 -162q-11 -5 -27 -8t-33 -3q-33 0 -59.5 16.5t-26.5 54.5q0 37 16.5 62.5t28.5 39.5h-5v665h60v-665q-6 -7 -14.5 -18t-16 -23.5t-13 -26t-5.5 -25.5q0 -18 11 -24.5t28 -6.5q8 0 22.5 2t25.5 6z" />
    <glyph glyph-name="Itilde" unicode="&#x128;" horiz-adv-x="291" 
d="M116 0v665h60v-665h-60zM3 806q11 31 29.5 49.5t53.5 18.5q19 0 36 -5t32.5 -11.5t29.5 -11.5t27 -5q18 0 23.5 13t10.5 25l46 -14q-9 -37 -27.5 -54.5t-53.5 -17.5q-15 0 -31.5 5t-33.5 11.5t-32 11.5t-27 5q-19 0 -26 -10.5t-12 -23.5z" />
    <glyph glyph-name="Jcircumflex" unicode="&#x134;" horiz-adv-x="291" 
d="M-18 -154q38 33 64 60.5t41.5 52.5t22 49t6.5 50v607h60v-607q0 -37 -9 -68t-28 -60.5t-49.5 -60t-73.5 -66.5zM19 755l96 161h64l96 -161h-59l-69 113l-69 -113h-59z" />
    <glyph glyph-name="Kcommaaccent" unicode="&#x136;" horiz-adv-x="592" 
d="M116 0v665h60v-370l335 370h73l-267 -297q70 -20 115 -69t74 -115l81 -184h-67l-73 165q-26 60 -67 102t-104 53l-100 -102v-218h-60zM243 -188l83 142h66l-93 -142h-56z" />
    <glyph glyph-name="Lacute" unicode="&#x139;" horiz-adv-x="508" 
d="M116 0v665h60v-612h307v-53h-367zM119 755l89 161h69l-102 -161h-56z" />
    <glyph glyph-name="Lcaron" unicode="&#x13d;" horiz-adv-x="508" 
d="M116 0v665h60v-612h307v-53h-367zM115 755l-96 161h59l69 -113l69 113h59l-96 -161h-64z" />
    <glyph glyph-name="Lcommaaccent" unicode="&#x13b;" horiz-adv-x="508" 
d="M116 0v665h60v-612h307v-53h-367zM204 -188l83 142h66l-93 -142h-56z" />
    <glyph glyph-name="Nacute" unicode="&#x143;" horiz-adv-x="754" 
d="M116 0v665h52l412 -425v425h58v-665h-58v159l-406 417v-576h-58zM334 755l89 161h69l-102 -161h-56z" />
    <glyph glyph-name="Ncaron" unicode="&#x147;" horiz-adv-x="754" 
d="M116 0v665h52l412 -425v425h58v-665h-58v159l-406 417v-576h-58zM345 755l-96 161h59l69 -113l69 113h59l-96 -161h-64z" />
    <glyph glyph-name="Ncommaaccent" unicode="&#x145;" horiz-adv-x="754" 
d="M116 0v665h52l412 -425v425h58v-665h-58v159l-406 417v-576h-58zM276 -188l83 142h66l-93 -142h-56z" />
    <glyph glyph-name="Ntilde" unicode="&#xd1;" horiz-adv-x="754" 
d="M116 0v665h52l412 -425v425h58v-665h-58v159l-406 417v-576h-58zM233 806q11 31 29.5 49.5t53.5 18.5q19 0 36 -5t32.5 -11.5t29.5 -11.5t27 -5q18 0 23.5 13t10.5 25l46 -14q-9 -37 -27.5 -54.5t-53.5 -17.5q-15 0 -31.5 5t-33.5 11.5t-32 11.5t-27 5q-19 0 -26 -10.5
t-12 -23.5z" />
    <glyph glyph-name="Oacute" unicode="&#xd3;" horiz-adv-x="684" 
d="M226 8q-50 19 -84.5 59.5t-53 106t-18.5 158.5q0 94 18.5 159.5t53 106t85 59t115.5 18.5q64 0 115 -18.5t85.5 -59t53 -106t18.5 -159.5q0 -93 -18.5 -158.5t-53 -106t-85.5 -59t-115 -18.5q-65 0 -116 18zM186 106q27 -34 66 -49t90 -15t90 15t65.5 49t40 89.5
t13.5 136.5t-13.5 136.5t-40 89.5t-65.5 49t-90 15t-90 -15t-65.5 -49t-40 -89.5t-13.5 -136.5t13.5 -136.5t39.5 -89.5zM311 755l89 161h69l-102 -161h-56z" />
    <glyph glyph-name="Obreve" unicode="&#x14e;" horiz-adv-x="684" 
d="M226 8q-50 19 -84.5 59.5t-53 106t-18.5 158.5q0 94 18.5 159.5t53 106t85 59t115.5 18.5q64 0 115 -18.5t85.5 -59t53 -106t18.5 -159.5q0 -93 -18.5 -158.5t-53 -106t-85.5 -59t-115 -18.5q-65 0 -116 18zM186 106q27 -34 66 -49t90 -15t90 15t65.5 49t40 89.5
t13.5 136.5t-13.5 136.5t-40 89.5t-65.5 49t-90 15t-90 -15t-65.5 -49t-40 -89.5t-13.5 -136.5t13.5 -136.5t39.5 -89.5zM253 898q1 -32 21.5 -53.5t67.5 -21.5t67.5 21.5t21.5 53.5h50q0 -31 -11 -54t-30 -38.5t-44.5 -23.5t-53.5 -8q-29 0 -54 8t-44 23.5t-30 38.5t-11 54
h50z" />
    <glyph glyph-name="Ocircumflex" unicode="&#xd4;" horiz-adv-x="684" 
d="M226 8q-50 19 -84.5 59.5t-53 106t-18.5 158.5q0 94 18.5 159.5t53 106t85 59t115.5 18.5q64 0 115 -18.5t85.5 -59t53 -106t18.5 -159.5q0 -93 -18.5 -158.5t-53 -106t-85.5 -59t-115 -18.5q-65 0 -116 18zM186 106q27 -34 66 -49t90 -15t90 15t65.5 49t40 89.5
t13.5 136.5t-13.5 136.5t-40 89.5t-65.5 49t-90 15t-90 -15t-65.5 -49t-40 -89.5t-13.5 -136.5t13.5 -136.5t39.5 -89.5zM214 755l96 161h64l96 -161h-59l-69 113l-69 -113h-59z" />
    <glyph glyph-name="Odieresis" unicode="&#xd6;" horiz-adv-x="684" 
d="M226 8q-50 19 -84.5 59.5t-53 106t-18.5 158.5q0 94 18.5 159.5t53 106t85 59t115.5 18.5q64 0 115 -18.5t85.5 -59t53 -106t18.5 -159.5q0 -93 -18.5 -158.5t-53 -106t-85.5 -59t-115 -18.5q-65 0 -116 18zM186 106q27 -34 66 -49t90 -15t90 15t65.5 49t40 89.5
t13.5 136.5t-13.5 136.5t-40 89.5t-65.5 49t-90 15t-90 -15t-65.5 -49t-40 -89.5t-13.5 -136.5t13.5 -136.5t39.5 -89.5zM256 796q-22 0 -32.5 11t-10.5 28t10.5 28t32.5 11t32.5 -11t10.5 -28t-10.5 -28t-32.5 -11zM429 796q-22 0 -32.5 11t-10.5 28t10.5 28t32.5 11
q21 0 32 -11t11 -28t-11 -28t-32 -11z" />
    <glyph glyph-name="Ograve" unicode="&#xd2;" horiz-adv-x="684" 
d="M226 8q-50 19 -84.5 59.5t-53 106t-18.5 158.5q0 94 18.5 159.5t53 106t85 59t115.5 18.5q64 0 115 -18.5t85.5 -59t53 -106t18.5 -159.5q0 -93 -18.5 -158.5t-53 -106t-85.5 -59t-115 -18.5q-65 0 -116 18zM186 106q27 -34 66 -49t90 -15t90 15t65.5 49t40 89.5
t13.5 136.5t-13.5 136.5t-40 89.5t-65.5 49t-90 15t-90 -15t-65.5 -49t-40 -89.5t-13.5 -136.5t13.5 -136.5t39.5 -89.5zM314 755l-102 161h70l89 -161h-57z" />
    <glyph glyph-name="Ohungarumlaut" unicode="&#x150;" horiz-adv-x="684" 
d="M226 8q-50 19 -84.5 59.5t-53 106t-18.5 158.5q0 94 18.5 159.5t53 106t85 59t115.5 18.5q64 0 115 -18.5t85.5 -59t53 -106t18.5 -159.5q0 -93 -18.5 -158.5t-53 -106t-85.5 -59t-115 -18.5q-65 0 -116 18zM186 106q27 -34 66 -49t90 -15t90 15t65.5 49t40 89.5
t13.5 136.5t-13.5 136.5t-40 89.5t-65.5 49t-90 15t-90 -15t-65.5 -49t-40 -89.5t-13.5 -136.5t13.5 -136.5t39.5 -89.5zM266 756l52 161h68l-69 -161h-51zM377 756l75 161h72l-96 -161h-51z" />
    <glyph glyph-name="Omacron" unicode="&#x14c;" horiz-adv-x="684" 
d="M226 8q-50 19 -84.5 59.5t-53 106t-18.5 158.5q0 94 18.5 159.5t53 106t85 59t115.5 18.5q64 0 115 -18.5t85.5 -59t53 -106t18.5 -159.5q0 -93 -18.5 -158.5t-53 -106t-85.5 -59t-115 -18.5q-65 0 -116 18zM186 106q27 -34 66 -49t90 -15t90 15t65.5 49t40 89.5
t13.5 136.5t-13.5 136.5t-40 89.5t-65.5 49t-90 15t-90 -15t-65.5 -49t-40 -89.5t-13.5 -136.5t13.5 -136.5t39.5 -89.5zM225 811v50h234v-50h-234z" />
    <glyph glyph-name="Oslashacute" unicode="&#x1fe;" horiz-adv-x="684" 
d="M310 755l89 161h69l-102 -161h-56zM80 -26l61 94q-35 41 -53 105.5t-18 158.5t18.5 159.5t53 106t85 59t115.5 18.5q100 0 163 -44l56 87l42 -25l-61 -95q35 -41 53.5 -106t18.5 -160q0 -93 -18.5 -158.5t-53 -106t-85.5 -59t-115 -18.5q-50 0 -91.5 10.5t-73.5 33.5
l-55 -85zM208 82q26 -21 59 -30.5t75 -9.5q51 0 90 15t65.5 49t40 89.5t13.5 136.5q0 74 -11 125.5t-33 86.5zM474 583q-49 39 -132 39q-51 0 -90 -15t-65.5 -49t-40 -89.5t-13.5 -136.5q0 -73 10.5 -124.5t31.5 -86.5z" />
    <glyph glyph-name="Otilde" unicode="&#xd5;" horiz-adv-x="684" 
d="M226 8q-50 19 -84.5 59.5t-53 106t-18.5 158.5q0 94 18.5 159.5t53 106t85 59t115.5 18.5q64 0 115 -18.5t85.5 -59t53 -106t18.5 -159.5q0 -93 -18.5 -158.5t-53 -106t-85.5 -59t-115 -18.5q-65 0 -116 18zM186 106q27 -34 66 -49t90 -15t90 15t65.5 49t40 89.5
t13.5 136.5t-13.5 136.5t-40 89.5t-65.5 49t-90 15t-90 -15t-65.5 -49t-40 -89.5t-13.5 -136.5t13.5 -136.5t39.5 -89.5zM198 806q11 31 29.5 49.5t53.5 18.5q19 0 36 -5t32.5 -11.5t29.5 -11.5t27 -5q18 0 23.5 13t10.5 25l46 -14q-9 -37 -27.5 -54.5t-53.5 -17.5
q-15 0 -31.5 5t-33.5 11.5t-32 11.5t-27 5q-19 0 -26 -10.5t-12 -23.5z" />
    <glyph glyph-name="Racute" unicode="&#x154;" horiz-adv-x="648" 
d="M116 0v665h206q59 0 104 -9.5t76 -32.5t46.5 -61.5t15.5 -96.5q0 -82 -36.5 -126t-102.5 -63q32 -19 49.5 -45.5t36.5 -69.5l67 -161h-64l-61 148q-9 22 -21 42.5t-28 36t-37.5 25t-50.5 9.5q-32 0 -67 3.5t-73 9.5v-274h-60zM176 326q39 -7 74 -10t67 -3q51 0 86.5 9.5
t57 28t31 47t9.5 67.5q0 43 -10 71.5t-32 45t-55.5 23.5t-81.5 7h-146v-286zM274 755l89 161h69l-102 -161h-56z" />
    <glyph glyph-name="Rcaron" unicode="&#x158;" horiz-adv-x="648" 
d="M116 0v665h206q59 0 104 -9.5t76 -32.5t46.5 -61.5t15.5 -96.5q0 -82 -36.5 -126t-102.5 -63q32 -19 49.5 -45.5t36.5 -69.5l67 -161h-64l-61 148q-9 22 -21 42.5t-28 36t-37.5 25t-50.5 9.5q-32 0 -67 3.5t-73 9.5v-274h-60zM176 326q39 -7 74 -10t67 -3q51 0 86.5 9.5
t57 28t31 47t9.5 67.5q0 43 -10 71.5t-32 45t-55.5 23.5t-81.5 7h-146v-286zM277 755l-96 161h59l69 -113l69 113h59l-96 -161h-64z" />
    <glyph glyph-name="Rcommaaccent" unicode="&#x156;" horiz-adv-x="648" 
d="M116 0v665h206q59 0 104 -9.5t76 -32.5t46.5 -61.5t15.5 -96.5q0 -82 -36.5 -126t-102.5 -63q32 -19 49.5 -45.5t36.5 -69.5l67 -161h-64l-61 148q-9 22 -21 42.5t-28 36t-37.5 25t-50.5 9.5q-32 0 -67 3.5t-73 9.5v-274h-60zM176 326q39 -7 74 -10t67 -3q51 0 86.5 9.5
t57 28t31 47t9.5 67.5q0 43 -10 71.5t-32 45t-55.5 23.5t-81.5 7h-146v-286zM246 -188l83 142h66l-93 -142h-56z" />
    <glyph glyph-name="Sacute" unicode="&#x15a;" horiz-adv-x="561" 
d="M83 75q35 -12 89 -22.5t111 -10.5q63 0 102.5 20t39.5 70q0 36 -26 69t-65.5 64.5t-85 63t-85 64t-65.5 67.5t-26 74q0 45 18.5 72.5t48.5 42.5t69.5 20.5t81.5 5.5q46 0 92 -5.5t72 -10.5l-8 -54q-13 3 -32 6t-40.5 5.5t-43 4t-38.5 1.5q-31 0 -59 -2.5t-49.5 -11
t-34 -25t-12.5 -44.5q0 -31 26 -60.5t65 -59t84 -60.5t84 -64.5t65 -71.5t26 -82t-16 -73t-43.5 -46t-65.5 -24.5t-82 -7.5q-60 0 -116 10.5t-93 23.5zM216 755l89 161h69l-102 -161h-56z" />
    <glyph glyph-name="Scaron" unicode="&#x160;" horiz-adv-x="561" 
d="M83 75q35 -12 89 -22.5t111 -10.5q63 0 102.5 20t39.5 70q0 36 -26 69t-65.5 64.5t-85 63t-85 64t-65.5 67.5t-26 74q0 45 18.5 72.5t48.5 42.5t69.5 20.5t81.5 5.5q46 0 92 -5.5t72 -10.5l-8 -54q-13 3 -32 6t-40.5 5.5t-43 4t-38.5 1.5q-31 0 -59 -2.5t-49.5 -11
t-34 -25t-12.5 -44.5q0 -31 26 -60.5t65 -59t84 -60.5t84 -64.5t65 -71.5t26 -82t-16 -73t-43.5 -46t-65.5 -24.5t-82 -7.5q-60 0 -116 10.5t-93 23.5zM234 755l-96 161h59l69 -113l69 113h59l-96 -161h-64z" />
    <glyph glyph-name="Scedilla" unicode="&#x15e;" horiz-adv-x="561" 
d="M83 75q35 -12 89 -22.5t111 -10.5q63 0 102.5 20t39.5 70q0 36 -26 69t-65.5 64.5t-85 63t-85 64t-65.5 67.5t-26 74q0 45 18.5 72.5t48.5 42.5t69.5 20.5t81.5 5.5q46 0 92 -5.5t72 -10.5l-8 -54q-13 3 -32 6t-40.5 5.5t-43 4t-38.5 1.5q-31 0 -59 -2.5t-49.5 -11
t-34 -25t-12.5 -44.5q0 -31 26 -60.5t65 -59t84 -60.5t84 -64.5t65 -71.5t26 -82t-16 -73t-43.5 -46t-65.5 -24.5t-82 -7.5q-60 0 -116 10.5t-93 23.5zM209 -141q12 -5 24.5 -7.5t22.5 -2.5q19 0 25 6.5t6 20.5q0 16 -8 34t-18 37h52q12 -19 20 -38.5t8 -36.5
q0 -32 -17.5 -50t-59.5 -18q-15 0 -34.5 3.5t-31.5 8.5z" />
    <glyph glyph-name="Scircumflex" unicode="&#x15c;" horiz-adv-x="561" 
d="M83 75q35 -12 89 -22.5t111 -10.5q63 0 102.5 20t39.5 70q0 36 -26 69t-65.5 64.5t-85 63t-85 64t-65.5 67.5t-26 74q0 45 18.5 72.5t48.5 42.5t69.5 20.5t81.5 5.5q46 0 92 -5.5t72 -10.5l-8 -54q-13 3 -32 6t-40.5 5.5t-43 4t-38.5 1.5q-31 0 -59 -2.5t-49.5 -11
t-34 -25t-12.5 -44.5q0 -31 26 -60.5t65 -59t84 -60.5t84 -64.5t65 -71.5t26 -82t-16 -73t-43.5 -46t-65.5 -24.5t-82 -7.5q-60 0 -116 10.5t-93 23.5zM141 755l96 161h64l96 -161h-59l-69 113l-69 -113h-59z" />
    <glyph glyph-name="Scommaaccent" unicode="&#x218;" horiz-adv-x="561" 
d="M83 75q35 -12 89 -22.5t111 -10.5q63 0 102.5 20t39.5 70q0 36 -26 69t-65.5 64.5t-85 63t-85 64t-65.5 67.5t-26 74q0 45 18.5 72.5t48.5 42.5t69.5 20.5t81.5 5.5q46 0 92 -5.5t72 -10.5l-8 -54q-13 3 -32 6t-40.5 5.5t-43 4t-38.5 1.5q-31 0 -59 -2.5t-49.5 -11
t-34 -25t-12.5 -44.5q0 -31 26 -60.5t65 -59t84 -60.5t84 -64.5t65 -71.5t26 -82t-16 -73t-43.5 -46t-65.5 -24.5t-82 -7.5q-60 0 -116 10.5t-93 23.5zM159 -188l83 142h66l-93 -142h-56z" />
    <glyph glyph-name="Tbar" unicode="&#x166;" horiz-adv-x="564" 
d="M252 0v312h-196v53h196v247h-232v53h524v-53h-232v-247h196v-53h-196v-312h-60z" />
    <glyph glyph-name="Tcaron" unicode="&#x164;" horiz-adv-x="564" 
d="M252 0v612h-232v53h524v-53h-232v-612h-60zM250 755l-96 161h59l69 -113l69 113h59l-96 -161h-64z" />
    <glyph glyph-name="Uacute" unicode="&#xda;" horiz-adv-x="701" 
d="M165 234q0 -40 9.5 -75t32 -60.5t59.5 -40t92 -14.5q56 0 101.5 7.5t77.5 16.5v597h59v-635q-41 -13 -98 -26.5t-141 -13.5q-68 0 -116 18.5t-78 50.5t-44 76.5t-14 97.5v432h60v-431zM320 755l89 161h69l-102 -161h-56z" />
    <glyph glyph-name="Ubreve" unicode="&#x16c;" horiz-adv-x="701" 
d="M165 234q0 -40 9.5 -75t32 -60.5t59.5 -40t92 -14.5q56 0 101.5 7.5t77.5 16.5v597h59v-635q-41 -13 -98 -26.5t-141 -13.5q-68 0 -116 18.5t-78 50.5t-44 76.5t-14 97.5v432h60v-431zM261 897q1 -32 21.5 -53.5t67.5 -21.5t67.5 21.5t21.5 53.5h50q0 -31 -11 -54
t-30 -38.5t-44.5 -23.5t-53.5 -8q-29 0 -54 8t-44 23.5t-30 38.5t-11 54h50z" />
    <glyph glyph-name="Ucircumflex" unicode="&#xdb;" horiz-adv-x="701" 
d="M165 234q0 -40 9.5 -75t32 -60.5t59.5 -40t92 -14.5q56 0 101.5 7.5t77.5 16.5v597h59v-635q-41 -13 -98 -26.5t-141 -13.5q-68 0 -116 18.5t-78 50.5t-44 76.5t-14 97.5v432h60v-431zM223 755l96 161h64l96 -161h-59l-69 113l-69 -113h-59z" />
    <glyph glyph-name="Udieresis" unicode="&#xdc;" horiz-adv-x="701" 
d="M165 234q0 -40 9.5 -75t32 -60.5t59.5 -40t92 -14.5q56 0 101.5 7.5t77.5 16.5v597h59v-635q-41 -13 -98 -26.5t-141 -13.5q-68 0 -116 18.5t-78 50.5t-44 76.5t-14 97.5v432h60v-431zM265 796q-22 0 -32.5 11t-10.5 28t10.5 28t32.5 11t32.5 -11t10.5 -28t-10.5 -28
t-32.5 -11zM438 796q-22 0 -32.5 11t-10.5 28t10.5 28t32.5 11q21 0 32 -11t11 -28t-11 -28t-32 -11z" />
    <glyph glyph-name="Ugrave" unicode="&#xd9;" horiz-adv-x="701" 
d="M165 234q0 -40 9.5 -75t32 -60.5t59.5 -40t92 -14.5q56 0 101.5 7.5t77.5 16.5v597h59v-635q-41 -13 -98 -26.5t-141 -13.5q-68 0 -116 18.5t-78 50.5t-44 76.5t-14 97.5v432h60v-431zM324 755l-102 161h70l89 -161h-57z" />
    <glyph glyph-name="Uhungarumlaut" unicode="&#x170;" horiz-adv-x="701" 
d="M165 234q0 -40 9.5 -75t32 -60.5t59.5 -40t92 -14.5q56 0 101.5 7.5t77.5 16.5v597h59v-635q-41 -13 -98 -26.5t-141 -13.5q-68 0 -116 18.5t-78 50.5t-44 76.5t-14 97.5v432h60v-431zM254 756l52 161h68l-69 -161h-51zM365 756l75 161h72l-96 -161h-51z" />
    <glyph glyph-name="Umacron" unicode="&#x16a;" horiz-adv-x="701" 
d="M165 234q0 -40 9.5 -75t32 -60.5t59.5 -40t92 -14.5q56 0 101.5 7.5t77.5 16.5v597h59v-635q-41 -13 -98 -26.5t-141 -13.5q-68 0 -116 18.5t-78 50.5t-44 76.5t-14 97.5v432h60v-431zM233 810v50h234v-50h-234z" />
    <glyph glyph-name="Uogonek" unicode="&#x172;" horiz-adv-x="701" 
d="M165 234q0 -40 9.5 -75t32 -60.5t59.5 -40t92 -14.5q56 0 101.5 7.5t77.5 16.5v597h59v-635q-6 -7 -14.5 -18t-16 -23.5t-13 -26t-5.5 -25.5q0 -18 11 -24.5t28 -6.5q8 0 22.5 2t25.5 6l8 -46q-11 -5 -27 -8t-33 -3q-33 0 -59.5 16.5t-26.5 54.5q0 26 9.5 47t20.5 35
q-34 -8 -75 -14t-94 -6q-68 0 -116 18.5t-78 50.5t-44 76.5t-14 97.5v432h60v-431z" />
    <glyph glyph-name="Uring" unicode="&#x16e;" horiz-adv-x="701" 
d="M165 234q0 -40 9.5 -75t32 -60.5t59.5 -40t92 -14.5q56 0 101.5 7.5t77.5 16.5v597h59v-635q-41 -13 -98 -26.5t-141 -13.5q-68 0 -116 18.5t-78 50.5t-44 76.5t-14 97.5v432h60v-431zM281 777q-24 22 -24 59t24.5 59t68.5 22t68.5 -22t24.5 -59t-24.5 -59t-68.5 -22
t-69 22zM315 805q11 -11 35 -11t34.5 11t10.5 31t-10.5 31t-34.5 11t-34.5 -11t-10.5 -31t10 -31z" />
    <glyph glyph-name="Utilde" unicode="&#x168;" horiz-adv-x="701" 
d="M165 234q0 -40 9.5 -75t32 -60.5t59.5 -40t92 -14.5q56 0 101.5 7.5t77.5 16.5v597h59v-635q-41 -13 -98 -26.5t-141 -13.5q-68 0 -116 18.5t-78 50.5t-44 76.5t-14 97.5v432h60v-431zM206 806q11 31 29.5 49.5t53.5 18.5q19 0 36 -5t32.5 -11.5t29.5 -11.5t27 -5
q18 0 23.5 13t10.5 25l46 -14q-9 -37 -27.5 -54.5t-53.5 -17.5q-15 0 -31.5 5t-33.5 11.5t-32 11.5t-27 5q-19 0 -26 -10.5t-12 -23.5z" />
    <glyph glyph-name="Wacute" unicode="&#x1e82;" horiz-adv-x="893" 
d="M191 0l-178 665h61l154 -606l182 469h71l181 -469q62 143 100.5 290.5t63.5 315.5h54q-16 -98 -33.5 -184t-40 -165.5t-50 -157t-63.5 -158.5h-67l-181 467l-185 -467h-69zM425 755l89 161h69l-102 -161h-56z" />
    <glyph glyph-name="Wcircumflex" unicode="&#x174;" horiz-adv-x="893" 
d="M191 0l-178 665h61l154 -606l182 469h71l181 -469q62 143 100.5 290.5t63.5 315.5h54q-16 -98 -33.5 -184t-40 -165.5t-50 -157t-63.5 -158.5h-67l-181 467l-185 -467h-69zM318 755l96 161h64l96 -161h-59l-69 113l-69 -113h-59z" />
    <glyph glyph-name="Wdieresis" unicode="&#x1e84;" horiz-adv-x="893" 
d="M191 0l-178 665h61l154 -606l182 469h71l181 -469q62 143 100.5 290.5t63.5 315.5h54q-16 -98 -33.5 -184t-40 -165.5t-50 -157t-63.5 -158.5h-67l-181 467l-185 -467h-69zM360 796q-22 0 -32.5 11t-10.5 28t10.5 28t32.5 11t32.5 -11t10.5 -28t-10.5 -28t-32.5 -11z
M533 796q-22 0 -32.5 11t-10.5 28t10.5 28t32.5 11q21 0 32 -11t11 -28t-11 -28t-32 -11z" />
    <glyph glyph-name="Wgrave" unicode="&#x1e80;" horiz-adv-x="893" 
d="M191 0l-178 665h61l154 -606l182 469h71l181 -469q62 143 100.5 290.5t63.5 315.5h54q-16 -98 -33.5 -184t-40 -165.5t-50 -157t-63.5 -158.5h-67l-181 467l-185 -467h-69zM426 755l-102 161h70l89 -161h-57z" />
    <glyph glyph-name="Yacute" unicode="&#xdd;" horiz-adv-x="537" 
d="M247 0v226l-257 439h71l223 -381q42 41 75 88t57.5 96.5t41 99.5t25.5 97h59q-28 -128 -88 -241.5t-149 -196.5v-227h-58zM241 755l89 161h69l-102 -161h-56z" />
    <glyph glyph-name="Ycircumflex" unicode="&#x176;" horiz-adv-x="537" 
d="M247 0v226l-257 439h71l223 -381q42 41 75 88t57.5 96.5t41 99.5t25.5 97h59q-28 -128 -88 -241.5t-149 -196.5v-227h-58zM157 755l96 161h64l96 -161h-59l-69 113l-69 -113h-59z" />
    <glyph glyph-name="Ydieresis" unicode="&#x178;" horiz-adv-x="537" 
d="M247 0v226l-257 439h71l223 -381q42 41 75 88t57.5 96.5t41 99.5t25.5 97h59q-28 -128 -88 -241.5t-149 -196.5v-227h-58zM202 796q-22 0 -32.5 11t-10.5 28t10.5 28t32.5 11t32.5 -11t10.5 -28t-10.5 -28t-32.5 -11zM375 796q-22 0 -32.5 11t-10.5 28t10.5 28t32.5 11
q21 0 32 -11t11 -28t-11 -28t-32 -11z" />
    <glyph glyph-name="Ygrave" unicode="&#x1ef2;" horiz-adv-x="537" 
d="M247 0v226l-257 439h71l223 -381q42 41 75 88t57.5 96.5t41 99.5t25.5 97h59q-28 -128 -88 -241.5t-149 -196.5v-227h-58zM270 755l-102 161h70l89 -161h-57z" />
    <glyph glyph-name="Zacute" unicode="&#x179;" horiz-adv-x="602" 
d="M52 0v45l415 567h-401v53h475v-47l-410 -565h419v-53h-498zM265 755l89 161h69l-102 -161h-56z" />
    <glyph glyph-name="Zcaron" unicode="&#x17d;" horiz-adv-x="602" 
d="M52 0v45l415 567h-401v53h475v-47l-410 -565h419v-53h-498zM268 755l-96 161h59l69 -113l69 113h59l-96 -161h-64z" />
    <glyph glyph-name="Zdotaccent" unicode="&#x17b;" horiz-adv-x="602" 
d="M52 0v45l415 567h-401v53h475v-47l-410 -565h419v-53h-498zM300 797q-22 0 -32.5 11t-10.5 28t10.5 28t32.5 11t32.5 -11t10.5 -28t-10.5 -28t-32.5 -11z" />
    <glyph glyph-name="aeacute" unicode="&#x1fd;" horiz-adv-x="814" 
d="M99 473q24 5 59 9.5t68 4.5q57 0 106 -17.5t72 -64.5q25 43 66 62.5t99 19.5q47 0 82.5 -14t59.5 -39.5t36 -60.5t12 -78v-65h-339q0 -45 8 -80t29 -59t57 -36.5t92 -12.5q16 0 35.5 1.5t38 4t35 5.5t25.5 6l5 -49q-25 -7 -62.5 -12.5t-76.5 -5.5q-58 0 -104.5 11.5
t-78.5 40.5q-41 -23 -89 -37.5t-107 -14.5q-38 0 -71 8t-57.5 26t-39 46.5t-14.5 70.5q0 41 16 68t42 43t60.5 22.5t71.5 6.5q33 0 68 -3.5t61 -7.5v62q0 30 -11.5 50t-31 32t-44.5 16.5t-52 4.5q-32 0 -63.5 -4t-56.5 -9zM390 86q-30 51 -31 136q-27 4 -59.5 7.5t-65.5 3.5
q-26 0 -49.5 -3.5t-41.5 -14t-29 -29t-11 -48.5q0 -27 10 -45.5t27 -29.5t39.5 -16t48.5 -5q21 0 43.5 3t44 9t41 14t33.5 18zM700 279q0 158 -132 158q-73 0 -107 -40t-40 -118h279zM383 569l89 161h69l-102 -161h-56z" />
    <glyph glyph-name="aacute" unicode="&#xe1;" horiz-adv-x="507" 
d="M421 24q-41 -11 -88 -21.5t-107 -10.5q-37 0 -70 8t-57.5 26t-39 46.5t-14.5 70.5q0 41 16 68t42 43t60.5 22.5t71.5 6.5q40 0 71.5 -3.5t57.5 -7.5v62q0 30 -11.5 50t-31 32t-44.5 16.5t-52 4.5q-32 0 -64 -4t-57 -9l-5 49q23 5 58.5 9.5t68.5 4.5q37 0 72.5 -7
t62.5 -24t43.5 -46.5t16.5 -74.5v-311zM364 221q-27 5 -61 8.5t-69 3.5q-26 0 -49.5 -3.5t-41.5 -14t-29 -29t-11 -48.5q0 -27 10 -45.5t27 -29.5t39.5 -16t47.5 -5q42 0 76.5 6t60.5 13v160zM214 569l89 161h69l-102 -161h-56z" />
    <glyph glyph-name="abreve" unicode="&#x103;" horiz-adv-x="507" 
d="M421 24q-41 -11 -88 -21.5t-107 -10.5q-37 0 -70 8t-57.5 26t-39 46.5t-14.5 70.5q0 41 16 68t42 43t60.5 22.5t71.5 6.5q40 0 71.5 -3.5t57.5 -7.5v62q0 30 -11.5 50t-31 32t-44.5 16.5t-52 4.5q-32 0 -64 -4t-57 -9l-5 49q23 5 58.5 9.5t68.5 4.5q37 0 72.5 -7
t62.5 -24t43.5 -46.5t16.5 -74.5v-311zM364 221q-27 5 -61 8.5t-69 3.5q-26 0 -49.5 -3.5t-41.5 -14t-29 -29t-11 -48.5q0 -27 10 -45.5t27 -29.5t39.5 -16t47.5 -5q42 0 76.5 6t60.5 13v160zM170 711q1 -32 21.5 -53.5t67.5 -21.5t67.5 21.5t21.5 53.5h50q0 -31 -11 -54
t-30 -38.5t-44.5 -23.5t-53.5 -8q-29 0 -54 8t-44 23.5t-30 38.5t-11 54h50z" />
    <glyph glyph-name="acircumflex" unicode="&#xe2;" horiz-adv-x="507" 
d="M421 24q-41 -11 -88 -21.5t-107 -10.5q-37 0 -70 8t-57.5 26t-39 46.5t-14.5 70.5q0 41 16 68t42 43t60.5 22.5t71.5 6.5q40 0 71.5 -3.5t57.5 -7.5v62q0 30 -11.5 50t-31 32t-44.5 16.5t-52 4.5q-32 0 -64 -4t-57 -9l-5 49q23 5 58.5 9.5t68.5 4.5q37 0 72.5 -7
t62.5 -24t43.5 -46.5t16.5 -74.5v-311zM364 221q-27 5 -61 8.5t-69 3.5q-26 0 -49.5 -3.5t-41.5 -14t-29 -29t-11 -48.5q0 -27 10 -45.5t27 -29.5t39.5 -16t47.5 -5q42 0 76.5 6t60.5 13v160zM131 569l96 161h64l96 -161h-59l-69 113l-69 -113h-59z" />
    <glyph glyph-name="adieresis" unicode="&#xe4;" horiz-adv-x="507" 
d="M421 24q-41 -11 -88 -21.5t-107 -10.5q-37 0 -70 8t-57.5 26t-39 46.5t-14.5 70.5q0 41 16 68t42 43t60.5 22.5t71.5 6.5q40 0 71.5 -3.5t57.5 -7.5v62q0 30 -11.5 50t-31 32t-44.5 16.5t-52 4.5q-32 0 -64 -4t-57 -9l-5 49q23 5 58.5 9.5t68.5 4.5q37 0 72.5 -7
t62.5 -24t43.5 -46.5t16.5 -74.5v-311zM364 221q-27 5 -61 8.5t-69 3.5q-26 0 -49.5 -3.5t-41.5 -14t-29 -29t-11 -48.5q0 -27 10 -45.5t27 -29.5t39.5 -16t47.5 -5q42 0 76.5 6t60.5 13v160zM173 610q-22 0 -32.5 11t-10.5 28t10.5 28t32.5 11t32.5 -11t10.5 -28t-10.5 -28
t-32.5 -11zM346 610q-22 0 -32.5 11t-10.5 28t10.5 28t32.5 11q21 0 32 -11t11 -28t-11 -28t-32 -11z" />
    <glyph glyph-name="agrave" unicode="&#xe0;" horiz-adv-x="507" 
d="M421 24q-41 -11 -88 -21.5t-107 -10.5q-37 0 -70 8t-57.5 26t-39 46.5t-14.5 70.5q0 41 16 68t42 43t60.5 22.5t71.5 6.5q40 0 71.5 -3.5t57.5 -7.5v62q0 30 -11.5 50t-31 32t-44.5 16.5t-52 4.5q-32 0 -64 -4t-57 -9l-5 49q23 5 58.5 9.5t68.5 4.5q37 0 72.5 -7
t62.5 -24t43.5 -46.5t16.5 -74.5v-311zM364 221q-27 5 -61 8.5t-69 3.5q-26 0 -49.5 -3.5t-41.5 -14t-29 -29t-11 -48.5q0 -27 10 -45.5t27 -29.5t39.5 -16t47.5 -5q42 0 76.5 6t60.5 13v160zM226 569l-102 161h70l89 -161h-57z" />
    <glyph glyph-name="amacron" unicode="&#x101;" horiz-adv-x="507" 
d="M421 24q-41 -11 -88 -21.5t-107 -10.5q-37 0 -70 8t-57.5 26t-39 46.5t-14.5 70.5q0 41 16 68t42 43t60.5 22.5t71.5 6.5q40 0 71.5 -3.5t57.5 -7.5v62q0 30 -11.5 50t-31 32t-44.5 16.5t-52 4.5q-32 0 -64 -4t-57 -9l-5 49q23 5 58.5 9.5t68.5 4.5q37 0 72.5 -7
t62.5 -24t43.5 -46.5t16.5 -74.5v-311zM364 221q-27 5 -61 8.5t-69 3.5q-26 0 -49.5 -3.5t-41.5 -14t-29 -29t-11 -48.5q0 -27 10 -45.5t27 -29.5t39.5 -16t47.5 -5q42 0 76.5 6t60.5 13v160zM142 624v50h234v-50h-234z" />
    <glyph glyph-name="aogonek" unicode="&#x105;" horiz-adv-x="507" 
d="M467 -138q-11 -5 -27 -8t-33 -3q-33 0 -59.5 16.5t-26.5 54.5q0 27 10 48.5t21 35.5q-28 -6 -59 -10t-67 -4q-37 0 -70 8t-57.5 26t-39 46.5t-14.5 70.5q0 41 16 68t42 43t60.5 22.5t71.5 6.5q40 0 71.5 -3.5t57.5 -7.5v62q0 30 -11.5 50t-31 32t-44.5 16.5t-52 4.5
q-32 0 -64 -4t-57 -9l-5 49q23 5 58.5 9.5t68.5 4.5q37 0 72.5 -7t62.5 -24t43.5 -46.5t16.5 -74.5v-311q-6 -7 -14.5 -18t-16 -23.5t-13 -26t-5.5 -25.5q0 -18 11 -24.5t28 -6.5q8 0 22.5 2t25.5 6zM364 221q-27 5 -61 8.5t-69 3.5q-26 0 -49.5 -3.5t-41.5 -14t-29 -29
t-11 -48.5q0 -27 10 -45.5t27 -29.5t39.5 -16t47.5 -5q42 0 76.5 6t60.5 13v160z" />
    <glyph glyph-name="aring" unicode="&#xe5;" horiz-adv-x="507" 
d="M421 24q-41 -11 -88 -21.5t-107 -10.5q-37 0 -70 8t-57.5 26t-39 46.5t-14.5 70.5q0 41 16 68t42 43t60.5 22.5t71.5 6.5q40 0 71.5 -3.5t57.5 -7.5v62q0 30 -11.5 50t-31 32t-44.5 16.5t-52 4.5q-32 0 -64 -4t-57 -9l-5 49q23 5 58.5 9.5t68.5 4.5q37 0 72.5 -7
t62.5 -24t43.5 -46.5t16.5 -74.5v-311zM364 221q-27 5 -61 8.5t-69 3.5q-26 0 -49.5 -3.5t-41.5 -14t-29 -29t-11 -48.5q0 -27 10 -45.5t27 -29.5t39.5 -16t47.5 -5q42 0 76.5 6t60.5 13v160zM190 589q-24 22 -24 59t24.5 59t68.5 22t68.5 -22t24.5 -59t-24.5 -59t-68.5 -22
t-69 22zM224 617q11 -11 35 -11t34.5 11t10.5 31t-10.5 31t-34.5 11t-34.5 -11t-10.5 -31t10 -31z" />
    <glyph glyph-name="aringacute" unicode="&#x1fb;" horiz-adv-x="507" 
d="M286 726q31 -7 48 -27.5t17 -50.5q0 -37 -24.5 -59t-68.5 -22t-68.5 22t-24.5 59q0 32 18 52.5t51 26.5l59 106h69zM223 617q11 -11 35 -11t34.5 11t10.5 31t-10.5 31t-34.5 11t-34.5 -11t-10.5 -31t10 -31zM421 24q-41 -11 -88 -21.5t-107 -10.5q-37 0 -70 8t-57.5 26
t-39 46.5t-14.5 70.5q0 41 16 68t42 43t60.5 22.5t71.5 6.5q40 0 71.5 -3.5t57.5 -7.5v62q0 30 -11.5 50t-31 32t-44.5 16.5t-52 4.5q-32 0 -64 -4t-57 -9l-5 49q23 5 58.5 9.5t68.5 4.5q37 0 72.5 -7t62.5 -24t43.5 -46.5t16.5 -74.5v-311zM364 221q-27 5 -61 8.5t-69 3.5
q-26 0 -49.5 -3.5t-41.5 -14t-29 -29t-11 -48.5q0 -27 10 -45.5t27 -29.5t39.5 -16t47.5 -5q42 0 76.5 6t60.5 13v160z" />
    <glyph glyph-name="atilde" unicode="&#xe3;" horiz-adv-x="507" 
d="M421 24q-41 -11 -88 -21.5t-107 -10.5q-37 0 -70 8t-57.5 26t-39 46.5t-14.5 70.5q0 41 16 68t42 43t60.5 22.5t71.5 6.5q40 0 71.5 -3.5t57.5 -7.5v62q0 30 -11.5 50t-31 32t-44.5 16.5t-52 4.5q-32 0 -64 -4t-57 -9l-5 49q23 5 58.5 9.5t68.5 4.5q37 0 72.5 -7
t62.5 -24t43.5 -46.5t16.5 -74.5v-311zM364 221q-27 5 -61 8.5t-69 3.5q-26 0 -49.5 -3.5t-41.5 -14t-29 -29t-11 -48.5q0 -27 10 -45.5t27 -29.5t39.5 -16t47.5 -5q42 0 76.5 6t60.5 13v160zM115 620q11 31 29.5 49.5t53.5 18.5q19 0 36 -5t32.5 -11.5t29.5 -11.5t27 -5
q18 0 23.5 13t10.5 25l46 -14q-9 -37 -27.5 -54.5t-53.5 -17.5q-15 0 -31.5 5t-33.5 11.5t-32 11.5t-27 5q-19 0 -26 -10.5t-12 -23.5z" />
    <glyph glyph-name="cacute" unicode="&#x107;" horiz-adv-x="464" 
d="M408 7q-34 -8 -63 -12t-64 -4q-47 0 -87.5 11.5t-70 40t-46.5 76.5t-17 120q0 73 16.5 120.5t45.5 76t70 40t89 11.5q32 0 64.5 -3.5t56.5 -8.5l-7 -50q-25 5 -55 8.5t-61 3.5q-35 0 -64 -8.5t-50 -30.5t-33 -60.5t-12 -98.5t12 -98t33.5 -60t50.5 -30.5t63 -8.5
q33 0 63 3.5t60 10.5zM232 569l89 161h69l-102 -161h-56z" />
    <glyph glyph-name="ccaron" unicode="&#x10d;" horiz-adv-x="464" 
d="M408 7q-34 -8 -63 -12t-64 -4q-47 0 -87.5 11.5t-70 40t-46.5 76.5t-17 120q0 73 16.5 120.5t45.5 76t70 40t89 11.5q32 0 64.5 -3.5t56.5 -8.5l-7 -50q-25 5 -55 8.5t-61 3.5q-35 0 -64 -8.5t-50 -30.5t-33 -60.5t-12 -98.5t12 -98t33.5 -60t50.5 -30.5t63 -8.5
q33 0 63 3.5t60 10.5zM232 569l-96 161h59l69 -113l69 113h59l-96 -161h-64z" />
    <glyph glyph-name="ccedilla" unicode="&#xe7;" horiz-adv-x="464" 
d="M408 7q-34 -8 -63 -12t-64 -4q-47 0 -87.5 11.5t-70 40t-46.5 76.5t-17 120q0 73 16.5 120.5t45.5 76t70 40t89 11.5q32 0 64.5 -3.5t56.5 -8.5l-7 -50q-25 5 -55 8.5t-61 3.5q-35 0 -64 -8.5t-50 -30.5t-33 -60.5t-12 -98.5t12 -98t33.5 -60t50.5 -30.5t63 -8.5
q33 0 63 3.5t60 10.5zM178 -141q12 -5 24.5 -7.5t22.5 -2.5q19 0 25 6.5t6 20.5q0 16 -8 34t-18 37h52q12 -19 20 -38.5t8 -36.5q0 -32 -17.5 -50t-59.5 -18q-15 0 -34.5 3.5t-31.5 8.5z" />
    <glyph glyph-name="ccircumflex" unicode="&#x109;" horiz-adv-x="464" 
d="M408 7q-34 -8 -63 -12t-64 -4q-47 0 -87.5 11.5t-70 40t-46.5 76.5t-17 120q0 73 16.5 120.5t45.5 76t70 40t89 11.5q32 0 64.5 -3.5t56.5 -8.5l-7 -50q-25 5 -55 8.5t-61 3.5q-35 0 -64 -8.5t-50 -30.5t-33 -60.5t-12 -98.5t12 -98t33.5 -60t50.5 -30.5t63 -8.5
q33 0 63 3.5t60 10.5zM135 569l96 161h64l96 -161h-59l-69 113l-69 -113h-59z" />
    <glyph glyph-name="cdotaccent" unicode="&#x10b;" horiz-adv-x="464" 
d="M408 7q-34 -8 -63 -12t-64 -4q-47 0 -87.5 11.5t-70 40t-46.5 76.5t-17 120q0 73 16.5 120.5t45.5 76t70 40t89 11.5q32 0 64.5 -3.5t56.5 -8.5l-7 -50q-25 5 -55 8.5t-61 3.5q-35 0 -64 -8.5t-50 -30.5t-33 -60.5t-12 -98.5t12 -98t33.5 -60t50.5 -30.5t63 -8.5
q33 0 63 3.5t60 10.5zM263 611q-22 0 -32.5 11t-10.5 28t10.5 28t32.5 11t32.5 -11t10.5 -28t-10.5 -28t-32.5 -11z" />
    <glyph glyph-name="dcaron" unicode="&#x10f;" 
d="M514 452l76 213h59l-83 -213h-52zM409 416q-37 10 -70 15.5t-68 5.5q-29 0 -56.5 -9t-48.5 -31t-34 -60t-13 -96q0 -62 11.5 -100.5t32.5 -60.5t49.5 -30t63.5 -8q32 0 66.5 4.5t66.5 10.5v359zM466 19q-45 -10 -94.5 -19t-96.5 -9q-44 0 -83 11t-68.5 39t-46.5 76.5
t-17 123.5q0 71 18 118.5t47.5 76t67.5 40t79 11.5q39 0 70.5 -5t66.5 -13v261h57v-711z" />
    <glyph glyph-name="dcroat" unicode="&#x111;" horiz-adv-x="565" 
d="M466 19q-45 -10 -94.5 -19t-96.5 -9q-44 0 -83 11t-68.5 39t-46.5 76.5t-17 123.5q0 71 18 118.5t47.5 76t67.5 40t79 11.5q39 0 70.5 -5t66.5 -13v106h-159v49h159v106h57v-106h89v-49h-89v-556zM409 416q-37 10 -70 15.5t-68 5.5q-29 0 -56.5 -9t-48.5 -31t-34 -60
t-13 -96q0 -62 11.5 -100.5t32.5 -60.5t49.5 -30t63.5 -8q32 0 66.5 4.5t66.5 10.5v359z" />
    <glyph glyph-name="eacute" unicode="&#xe9;" horiz-adv-x="515" 
d="M121 230q0 -45 8 -80t29 -59t57 -36.5t92 -12.5q16 0 34.5 1.5t36.5 4t34.5 5.5t28.5 6l5 -49q-25 -7 -62.5 -12.5t-76.5 -5.5q-57 0 -102.5 10.5t-77.5 38.5t-49.5 76t-17.5 122q0 66 14.5 113t41.5 77t66 44t88 14q47 0 82.5 -14t59.5 -39.5t36 -60.5t12 -78v-65h-339z
M401 279q0 158 -132 158q-73 0 -107 -40t-40 -118h279zM236 569l89 161h69l-102 -161h-56z" />
    <glyph glyph-name="ebreve" unicode="&#x115;" horiz-adv-x="515" 
d="M121 230q0 -45 8 -80t29 -59t57 -36.5t92 -12.5q16 0 34.5 1.5t36.5 4t34.5 5.5t28.5 6l5 -49q-25 -7 -62.5 -12.5t-76.5 -5.5q-57 0 -102.5 10.5t-77.5 38.5t-49.5 76t-17.5 122q0 66 14.5 113t41.5 77t66 44t88 14q47 0 82.5 -14t59.5 -39.5t36 -60.5t12 -78v-65h-339z
M401 279q0 158 -132 158q-73 0 -107 -40t-40 -118h279zM180 711q1 -32 21.5 -53.5t67.5 -21.5t67.5 21.5t21.5 53.5h50q0 -31 -11 -54t-30 -38.5t-44.5 -23.5t-53.5 -8q-29 0 -54 8t-44 23.5t-30 38.5t-11 54h50z" />
    <glyph glyph-name="ecaron" unicode="&#x11b;" horiz-adv-x="515" 
d="M121 230q0 -45 8 -80t29 -59t57 -36.5t92 -12.5q16 0 34.5 1.5t36.5 4t34.5 5.5t28.5 6l5 -49q-25 -7 -62.5 -12.5t-76.5 -5.5q-57 0 -102.5 10.5t-77.5 38.5t-49.5 76t-17.5 122q0 66 14.5 113t41.5 77t66 44t88 14q47 0 82.5 -14t59.5 -39.5t36 -60.5t12 -78v-65h-339z
M401 279q0 158 -132 158q-73 0 -107 -40t-40 -118h279zM237 569l-96 161h59l69 -113l69 113h59l-96 -161h-64z" />
    <glyph glyph-name="ecircumflex" unicode="&#xea;" horiz-adv-x="515" 
d="M121 230q0 -45 8 -80t29 -59t57 -36.5t92 -12.5q16 0 34.5 1.5t36.5 4t34.5 5.5t28.5 6l5 -49q-25 -7 -62.5 -12.5t-76.5 -5.5q-57 0 -102.5 10.5t-77.5 38.5t-49.5 76t-17.5 122q0 66 14.5 113t41.5 77t66 44t88 14q47 0 82.5 -14t59.5 -39.5t36 -60.5t12 -78v-65h-339z
M401 279q0 158 -132 158q-73 0 -107 -40t-40 -118h279zM141 569l96 161h64l96 -161h-59l-69 113l-69 -113h-59z" />
    <glyph glyph-name="edieresis" unicode="&#xeb;" horiz-adv-x="515" 
d="M121 230q0 -45 8 -80t29 -59t57 -36.5t92 -12.5q16 0 34.5 1.5t36.5 4t34.5 5.5t28.5 6l5 -49q-25 -7 -62.5 -12.5t-76.5 -5.5q-57 0 -102.5 10.5t-77.5 38.5t-49.5 76t-17.5 122q0 66 14.5 113t41.5 77t66 44t88 14q47 0 82.5 -14t59.5 -39.5t36 -60.5t12 -78v-65h-339z
M401 279q0 158 -132 158q-73 0 -107 -40t-40 -118h279zM183 610q-22 0 -32.5 11t-10.5 28t10.5 28t32.5 11t32.5 -11t10.5 -28t-10.5 -28t-32.5 -11zM356 610q-22 0 -32.5 11t-10.5 28t10.5 28t32.5 11q21 0 32 -11t11 -28t-11 -28t-32 -11z" />
    <glyph glyph-name="edotaccent" unicode="&#x117;" horiz-adv-x="515" 
d="M121 230q0 -45 8 -80t29 -59t57 -36.5t92 -12.5q16 0 34.5 1.5t36.5 4t34.5 5.5t28.5 6l5 -49q-25 -7 -62.5 -12.5t-76.5 -5.5q-57 0 -102.5 10.5t-77.5 38.5t-49.5 76t-17.5 122q0 66 14.5 113t41.5 77t66 44t88 14q47 0 82.5 -14t59.5 -39.5t36 -60.5t12 -78v-65h-339z
M401 279q0 158 -132 158q-73 0 -107 -40t-40 -118h279zM269 611q-22 0 -32.5 11t-10.5 28t10.5 28t32.5 11t32.5 -11t10.5 -28t-10.5 -28t-32.5 -11z" />
    <glyph glyph-name="egrave" unicode="&#xe8;" horiz-adv-x="515" 
d="M121 230q0 -45 8 -80t29 -59t57 -36.5t92 -12.5q16 0 34.5 1.5t36.5 4t34.5 5.5t28.5 6l5 -49q-25 -7 -62.5 -12.5t-76.5 -5.5q-57 0 -102.5 10.5t-77.5 38.5t-49.5 76t-17.5 122q0 66 14.5 113t41.5 77t66 44t88 14q47 0 82.5 -14t59.5 -39.5t36 -60.5t12 -78v-65h-339z
M401 279q0 158 -132 158q-73 0 -107 -40t-40 -118h279zM245 569l-102 161h70l89 -161h-57z" />
    <glyph glyph-name="emacron" unicode="&#x113;" horiz-adv-x="515" 
d="M121 230q0 -45 8 -80t29 -59t57 -36.5t92 -12.5q16 0 34.5 1.5t36.5 4t34.5 5.5t28.5 6l5 -49q-25 -7 -62.5 -12.5t-76.5 -5.5q-57 0 -102.5 10.5t-77.5 38.5t-49.5 76t-17.5 122q0 66 14.5 113t41.5 77t66 44t88 14q47 0 82.5 -14t59.5 -39.5t36 -60.5t12 -78v-65h-339z
M401 279q0 158 -132 158q-73 0 -107 -40t-40 -118h279zM152 624v50h234v-50h-234z" />
    <glyph glyph-name="eogonek" unicode="&#x119;" horiz-adv-x="515" 
d="M492 -152q-11 -5 -27 -8t-33 -3q-33 0 -59.5 16.5t-26.5 54.5q0 29 11 51.5t22 37.5q-17 -2 -35.5 -3.5t-36.5 -1.5q-57 0 -102.5 10.5t-77.5 38.5t-49.5 76t-17.5 122q0 66 14.5 113t41.5 77t66 44t88 14q47 0 82.5 -14t59.5 -39.5t36 -60.5t12 -78v-65h-339
q0 -45 8 -80t29 -59t57 -36.5t92 -12.5q16 0 34.5 1.5t36.5 4t34.5 5.5t28.5 6l5 -49q-6 -7 -14.5 -18t-16 -23.5t-13 -26t-5.5 -25.5q0 -18 11 -24.5t28 -6.5q8 0 22.5 2t25.5 6zM401 279q0 158 -132 158q-73 0 -107 -40t-40 -118h279z" />
    <glyph glyph-name="gbreve" unicode="&#x11f;" horiz-adv-x="563" 
d="M111 -123q39 -11 83 -17t79 -6q75 0 106 30.5t31 91.5v38q-32 -5 -66.5 -9.5t-70.5 -4.5q-42 0 -80.5 9.5t-68 36t-47 74.5t-17.5 125q0 70 18 117t48 74.5t70 39t84 11.5q49 0 94.5 -10t92.5 -24v-474q0 -91 -49 -133.5t-144 -42.5q-39 0 -85.5 5.5t-86.5 17.5zM410 416
q-12 3 -27.5 7t-33 7t-35.5 5t-33 2q-33 0 -62.5 -8t-51 -29t-34.5 -58.5t-13 -96.5q0 -62 11.5 -100.5t32 -59.5t48.5 -28t60 -7q33 0 68 4.5t70 10.5v351zM180 711q1 -32 21.5 -53.5t67.5 -21.5t67.5 21.5t21.5 53.5h50q0 -31 -11 -54t-30 -38.5t-44.5 -23.5t-53.5 -8
q-29 0 -54 8t-44 23.5t-30 38.5t-11 54h50z" />
    <glyph glyph-name="gcircumflex" unicode="&#x11d;" horiz-adv-x="563" 
d="M111 -123q39 -11 83 -17t79 -6q75 0 106 30.5t31 91.5v38q-32 -5 -66.5 -9.5t-70.5 -4.5q-42 0 -80.5 9.5t-68 36t-47 74.5t-17.5 125q0 70 18 117t48 74.5t70 39t84 11.5q49 0 94.5 -10t92.5 -24v-474q0 -91 -49 -133.5t-144 -42.5q-39 0 -85.5 5.5t-86.5 17.5zM410 416
q-12 3 -27.5 7t-33 7t-35.5 5t-33 2q-33 0 -62.5 -8t-51 -29t-34.5 -58.5t-13 -96.5q0 -62 11.5 -100.5t32 -59.5t48.5 -28t60 -7q33 0 68 4.5t70 10.5v351zM141 569l96 161h64l96 -161h-59l-69 113l-69 -113h-59z" />
    <glyph glyph-name="gcommaaccent" unicode="&#x123;" horiz-adv-x="563" 
d="M111 -123q39 -11 83 -17t79 -6q75 0 106 30.5t31 91.5v38q-32 -5 -66.5 -9.5t-70.5 -4.5q-42 0 -80.5 9.5t-68 36t-47 74.5t-17.5 125q0 70 18 117t48 74.5t70 39t84 11.5q49 0 94.5 -10t92.5 -24v-474q0 -91 -49 -133.5t-144 -42.5q-39 0 -85.5 5.5t-86.5 17.5zM410 416
q-12 3 -27.5 7t-33 7t-35.5 5t-33 2q-33 0 -62.5 -8t-51 -29t-34.5 -58.5t-13 -96.5q0 -62 11.5 -100.5t32 -59.5t48.5 -28t60 -7q33 0 68 4.5t70 10.5v351zM228 569l102 161h56l-89 -161h-69z" />
    <glyph glyph-name="gdotaccent" unicode="&#x121;" horiz-adv-x="563" 
d="M111 -123q39 -11 83 -17t79 -6q75 0 106 30.5t31 91.5v38q-32 -5 -66.5 -9.5t-70.5 -4.5q-42 0 -80.5 9.5t-68 36t-47 74.5t-17.5 125q0 70 18 117t48 74.5t70 39t84 11.5q49 0 94.5 -10t92.5 -24v-474q0 -91 -49 -133.5t-144 -42.5q-39 0 -85.5 5.5t-86.5 17.5zM410 416
q-12 3 -27.5 7t-33 7t-35.5 5t-33 2q-33 0 -62.5 -8t-51 -29t-34.5 -58.5t-13 -96.5q0 -62 11.5 -100.5t32 -59.5t48.5 -28t60 -7q33 0 68 4.5t70 10.5v351zM269 611q-22 0 -32.5 11t-10.5 28t10.5 28t32.5 11t32.5 -11t10.5 -28t-10.5 -28t-32.5 -11z" />
    <glyph glyph-name="hbar" unicode="&#x127;" horiz-adv-x="587" 
d="M99 0v575h-89v49h89v106h57v-106h159v-49h-159v-109q34 8 72 14.5t76 6.5t73 -8t62 -26.5t43 -49.5t16 -77v-326h-57v323q0 33 -11 55t-29.5 35t-44.5 18.5t-56 5.5q-37 0 -75 -6.5t-69 -14.5v-416h-57z" />
    <glyph glyph-name="hcircumflex" unicode="&#x125;" horiz-adv-x="587" 
d="M99 0v730h57v-264q34 8 72 14.5t76 6.5t73 -8t62 -26.5t43 -49.5t16 -77v-326h-57v323q0 33 -11 55t-29.5 35t-44.5 18.5t-56 5.5q-37 0 -75 -6.5t-69 -14.5v-416h-57zM2 781l96 161h64l96 -161h-59l-69 113l-69 -113h-59z" />
    <glyph glyph-name="iacute" unicode="&#xed;" horiz-adv-x="255" 
d="M99 0v479h57v-479h-57zM100 569l89 161h69l-102 -161h-56z" />
    <glyph glyph-name="ibreve" unicode="&#x12d;" horiz-adv-x="255" 
d="M99 0v479h57v-479h-57zM39 711q1 -32 21.5 -53.5t67.5 -21.5t67.5 21.5t21.5 53.5h50q0 -31 -11 -54t-30 -38.5t-44.5 -23.5t-53.5 -8q-29 0 -54 8t-44 23.5t-30 38.5t-11 54h50z" />
    <glyph glyph-name="icircumflex" unicode="&#xee;" horiz-adv-x="255" 
d="M99 0v479h57v-479h-57zM0 569l96 161h64l96 -161h-59l-69 113l-69 -113h-59z" />
    <glyph glyph-name="idieresis" unicode="&#xef;" horiz-adv-x="255" 
d="M99 0v479h57v-479h-57zM42 610q-22 0 -32.5 11t-10.5 28t10.5 28t32.5 11t32.5 -11t10.5 -28t-10.5 -28t-32.5 -11zM215 610q-22 0 -32.5 11t-10.5 28t10.5 28t32.5 11q21 0 32 -11t11 -28t-11 -28t-32 -11z" />
    <glyph glyph-name="igrave" unicode="&#xec;" horiz-adv-x="255" 
d="M99 0v479h57v-479h-57zM100 569l-102 161h70l89 -161h-57z" />
    <glyph glyph-name="imacron" unicode="&#x12b;" horiz-adv-x="255" 
d="M99 0v479h57v-479h-57zM11 624v50h234v-50h-234z" />
    <glyph glyph-name="iogonek" unicode="&#x12f;" horiz-adv-x="255" 
d="M202 -162q-11 -5 -27 -8t-33 -3q-33 0 -59.5 16.5t-26.5 54.5q0 18 4.5 34t11.5 29t14.5 23t12.5 16v479h57v-479q-6 -7 -14.5 -18t-16 -23.5t-13 -26t-5.5 -25.5q0 -18 11 -24.5t28 -6.5q8 0 22.5 2t25.5 6zM127 627q-22 0 -32.5 11t-10.5 28t10.5 28t32.5 11t32.5 -11
t10.5 -28t-10.5 -28t-32.5 -11z" />
    <glyph glyph-name="jcircumflex" unicode="&#x135;" horiz-adv-x="255" 
d="M-20 -158q39 34 62 60t36 50t17 48.5t4 54.5v424h57v-424q0 -42 -5.5 -72t-21 -57t-43.5 -55.5t-73 -66.5zM1 569l96 161h64l96 -161h-59l-69 113l-69 -113h-59z" />
    <glyph glyph-name="kcommaaccent" unicode="&#x137;" horiz-adv-x="516" 
d="M99 0v730h57v-496l263 245h72l-203 -194q50 -11 83 -49t55 -85l70 -151h-63l-59 126q-10 21 -22.5 41.5t-28 37t-34.5 27.5t-43 14l-90 -79v-167h-57zM188 -188l83 142h66l-93 -142h-56z" />
    <glyph glyph-name="lacute" unicode="&#x13a;" horiz-adv-x="255" 
d="M99 0v730h57v-730h-57zM100 772l89 161h69l-102 -161h-56z" />
    <glyph glyph-name="lcaron" unicode="&#x13e;" horiz-adv-x="296" 
d="M205 452l76 213h59l-83 -213h-52zM99 0v730h57v-730h-57z" />
    <glyph glyph-name="lcommaaccent" unicode="&#x13c;" horiz-adv-x="255" 
d="M99 0v730h57v-730h-57zM17 -188l83 142h66l-93 -142h-56z" />
    <glyph glyph-name="nacute" unicode="&#x144;" horiz-adv-x="587" 
d="M99 0v453q19 6 43.5 12t51 11t54.5 8t56 3q38 0 73 -8t62 -26.5t43 -49.5t16 -77v-326h-57v323q0 33 -11 55t-29.5 35t-44.5 18.5t-56 5.5q-37 0 -75 -6.5t-69 -14.5v-416h-57zM261 569l89 161h69l-102 -161h-56z" />
    <glyph glyph-name="ncaron" unicode="&#x148;" horiz-adv-x="587" 
d="M99 0v453q19 6 43.5 12t51 11t54.5 8t56 3q38 0 73 -8t62 -26.5t43 -49.5t16 -77v-326h-57v323q0 33 -11 55t-29.5 35t-44.5 18.5t-56 5.5q-37 0 -75 -6.5t-69 -14.5v-416h-57zM267 569l-96 161h59l69 -113l69 113h59l-96 -161h-64z" />
    <glyph glyph-name="ncommaaccent" unicode="&#x146;" horiz-adv-x="587" 
d="M99 0v453q19 6 43.5 12t51 11t54.5 8t56 3q38 0 73 -8t62 -26.5t43 -49.5t16 -77v-326h-57v323q0 33 -11 55t-29.5 35t-44.5 18.5t-56 5.5q-37 0 -75 -6.5t-69 -14.5v-416h-57zM198 -188l83 142h66l-93 -142h-56z" />
    <glyph glyph-name="ntilde" unicode="&#xf1;" horiz-adv-x="587" 
d="M99 0v453q19 6 43.5 12t51 11t54.5 8t56 3q38 0 73 -8t62 -26.5t43 -49.5t16 -77v-326h-57v323q0 33 -11 55t-29.5 35t-44.5 18.5t-56 5.5q-37 0 -75 -6.5t-69 -14.5v-416h-57zM156 620q11 31 29.5 49.5t53.5 18.5q19 0 36 -5t32.5 -11.5t29.5 -11.5t27 -5q18 0 23.5 13
t10.5 25l46 -14q-9 -37 -27.5 -54.5t-53.5 -17.5q-15 0 -31.5 5t-33.5 11.5t-32 11.5t-27 5q-19 0 -26 -10.5t-12 -23.5z" />
    <glyph glyph-name="oacute" unicode="&#xf3;" horiz-adv-x="535" 
d="M270 -8q-102 0 -158 57.5t-56 189.5t56 190t158 58t158 -58t56 -190t-56 -189.5t-158 -57.5zM158 81q20 -22 48.5 -30.5t64.5 -8.5q35 0 63 8.5t48 31t31 60.5t11 97t-11 97t-31 60.5t-48 31.5t-63 9q-36 0 -64.5 -9t-48.5 -31.5t-31 -60.5t-11 -97t11 -97t31 -61z
M241 569l89 161h69l-102 -161h-56z" />
    <glyph glyph-name="obreve" unicode="&#x14f;" horiz-adv-x="538" 
d="M270 -8q-102 0 -158 57.5t-56 189.5t56 190t158 58t158 -58t56 -190t-56 -189.5t-158 -57.5zM158 81q20 -22 48.5 -30.5t64.5 -8.5q35 0 63 8.5t48 31t31 60.5t11 97t-11 97t-31 60.5t-48 31.5t-63 9q-36 0 -64.5 -9t-48.5 -31.5t-31 -60.5t-11 -97t11 -97t31 -61z
M181 711q1 -32 21.5 -53.5t67.5 -21.5t67.5 21.5t21.5 53.5h50q0 -31 -11 -54t-30 -38.5t-44.5 -23.5t-53.5 -8q-29 0 -54 8t-44 23.5t-30 38.5t-11 54h50z" />
    <glyph glyph-name="ocircumflex" unicode="&#xf4;" horiz-adv-x="535" 
d="M270 -8q-102 0 -158 57.5t-56 189.5t56 190t158 58t158 -58t56 -190t-56 -189.5t-158 -57.5zM158 81q20 -22 48.5 -30.5t64.5 -8.5q35 0 63 8.5t48 31t31 60.5t11 97t-11 97t-31 60.5t-48 31.5t-63 9q-36 0 -64.5 -9t-48.5 -31.5t-31 -60.5t-11 -97t11 -97t31 -61z
M140 569l96 161h64l96 -161h-59l-69 113l-69 -113h-59z" />
    <glyph glyph-name="odieresis" unicode="&#xf6;" horiz-adv-x="535" 
d="M270 -8q-102 0 -158 57.5t-56 189.5t56 190t158 58t158 -58t56 -190t-56 -189.5t-158 -57.5zM158 81q20 -22 48.5 -30.5t64.5 -8.5q35 0 63 8.5t48 31t31 60.5t11 97t-11 97t-31 60.5t-48 31.5t-63 9q-36 0 -64.5 -9t-48.5 -31.5t-31 -60.5t-11 -97t11 -97t31 -61z
M182 610q-22 0 -32.5 11t-10.5 28t10.5 28t32.5 11t32.5 -11t10.5 -28t-10.5 -28t-32.5 -11zM355 610q-22 0 -32.5 11t-10.5 28t10.5 28t32.5 11q21 0 32 -11t11 -28t-11 -28t-32 -11z" />
    <glyph glyph-name="ograve" unicode="&#xf2;" horiz-adv-x="535" 
d="M270 -8q-102 0 -158 57.5t-56 189.5t56 190t158 58t158 -58t56 -190t-56 -189.5t-158 -57.5zM158 81q20 -22 48.5 -30.5t64.5 -8.5q35 0 63 8.5t48 31t31 60.5t11 97t-11 97t-31 60.5t-48 31.5t-63 9q-36 0 -64.5 -9t-48.5 -31.5t-31 -60.5t-11 -97t11 -97t31 -61z
M232 569l-102 161h70l89 -161h-57z" />
    <glyph glyph-name="ohungarumlaut" unicode="&#x151;" horiz-adv-x="538" 
d="M270 -8q-102 0 -158 57.5t-56 189.5t56 190t158 58t158 -58t56 -190t-56 -189.5t-158 -57.5zM158 81q20 -22 48.5 -30.5t64.5 -8.5q35 0 63 8.5t48 31t31 60.5t11 97t-11 97t-31 60.5t-48 31.5t-63 9q-36 0 -64.5 -9t-48.5 -31.5t-31 -60.5t-11 -97t11 -97t31 -61z
M184 569l52 161h68l-69 -161h-51zM295 569l75 161h72l-96 -161h-51z" />
    <glyph glyph-name="omacron" unicode="&#x14d;" horiz-adv-x="538" 
d="M270 -8q-102 0 -158 57.5t-56 189.5t56 190t158 58t158 -58t56 -190t-56 -189.5t-158 -57.5zM158 81q20 -22 48.5 -30.5t64.5 -8.5q35 0 63 8.5t48 31t31 60.5t11 97t-11 97t-31 60.5t-48 31.5t-63 9q-36 0 -64.5 -9t-48.5 -31.5t-31 -60.5t-11 -97t11 -97t31 -61z
M152 624v50h234v-50h-234z" />
    <glyph glyph-name="oslashacute" unicode="&#x1ff;" horiz-adv-x="538" 
d="M63 -61l60 98q-33 29 -50.5 78.5t-17.5 123.5q0 132 56 190t158 58q70 0 116 -26l49 79l41 -22l-52 -85q29 -30 44.5 -77.5t15.5 -116.5q0 -132 -56 -189.5t-158 -57.5q-64 0 -107 20l-58 -95zM358 416q-18 11 -40 16t-48 5q-36 0 -64.5 -9t-48.5 -31.5t-31 -60.5
t-11 -97q0 -57 10 -94t28 -60zM190 57q17 -8 37 -11.5t43 -3.5q35 0 63 8.5t48 31t31 60.5t11 97q0 51 -8 86t-23 58zM241 569l89 161h69l-102 -161h-56z" />
    <glyph glyph-name="otilde" unicode="&#xf5;" horiz-adv-x="535" 
d="M270 -8q-102 0 -158 57.5t-56 189.5t56 190t158 58t158 -58t56 -190t-56 -189.5t-158 -57.5zM158 81q20 -22 48.5 -30.5t64.5 -8.5q35 0 63 8.5t48 31t31 60.5t11 97t-11 97t-31 60.5t-48 31.5t-63 9q-36 0 -64.5 -9t-48.5 -31.5t-31 -60.5t-11 -97t11 -97t31 -61z
M125 620q11 31 29.5 49.5t53.5 18.5q19 0 36 -5t32.5 -11.5t29.5 -11.5t27 -5q18 0 23.5 13t10.5 25l46 -14q-9 -37 -27.5 -54.5t-53.5 -17.5q-15 0 -31.5 5t-33.5 11.5t-32 11.5t-27 5q-19 0 -26 -10.5t-12 -23.5z" />
    <glyph glyph-name="racute" unicode="&#x155;" horiz-adv-x="354" 
d="M99 0v453q68 20 125.5 27t109.5 7v-51q-45 0 -94.5 -5.5t-83.5 -15.5v-415h-57zM183 569l89 161h69l-102 -161h-56z" />
    <glyph glyph-name="rcaron" unicode="&#x159;" horiz-adv-x="354" 
d="M99 0v453q68 20 125.5 27t109.5 7v-51q-45 0 -94.5 -5.5t-83.5 -15.5v-415h-57zM186 569l-96 161h59l69 -113l69 113h59l-96 -161h-64z" />
    <glyph glyph-name="rcommaaccent" unicode="&#x157;" horiz-adv-x="354" 
d="M99 0v453q68 20 125.5 27t109.5 7v-51q-45 0 -94.5 -5.5t-83.5 -15.5v-415h-57zM10 -188l83 142h66l-93 -142h-56z" />
    <glyph glyph-name="sacute" unicode="&#x15b;" horiz-adv-x="446" 
d="M68 70q32 -11 74.5 -19.5t89.5 -8.5q20 0 39.5 3t34.5 10.5t24 20.5t9 33q0 28 -21 48.5t-52.5 37.5t-68.5 33t-68.5 35.5t-52.5 44.5t-21 60q0 34 14.5 56.5t40 36.5t59 20t71.5 6t75 -3.5t60 -8.5l-6 -50q-22 4 -58 8t-69 4q-26 0 -49.5 -3t-41.5 -10.5t-28.5 -20.5
t-10.5 -33q0 -24 21 -41.5t53 -33.5t68.5 -33t68.5 -38t53 -49t21 -66q0 -61 -46 -89t-119 -28q-50 0 -95.5 8.5t-77.5 19.5zM185 569l89 161h69l-102 -161h-56z" />
    <glyph glyph-name="scaron" unicode="&#x161;" horiz-adv-x="446" 
d="M68 70q32 -11 74.5 -19.5t89.5 -8.5q20 0 39.5 3t34.5 10.5t24 20.5t9 33q0 28 -21 48.5t-52.5 37.5t-68.5 33t-68.5 35.5t-52.5 44.5t-21 60q0 34 14.5 56.5t40 36.5t59 20t71.5 6t75 -3.5t60 -8.5l-6 -50q-22 4 -58 8t-69 4q-26 0 -49.5 -3t-41.5 -10.5t-28.5 -20.5
t-10.5 -33q0 -24 21 -41.5t53 -33.5t68.5 -33t68.5 -38t53 -49t21 -66q0 -61 -46 -89t-119 -28q-50 0 -95.5 8.5t-77.5 19.5zM179 569l-96 161h59l69 -113l69 113h59l-96 -161h-64z" />
    <glyph glyph-name="scedilla" unicode="&#x15f;" horiz-adv-x="446" 
d="M68 70q32 -11 74.5 -19.5t89.5 -8.5q20 0 39.5 3t34.5 10.5t24 20.5t9 33q0 28 -21 48.5t-52.5 37.5t-68.5 33t-68.5 35.5t-52.5 44.5t-21 60q0 34 14.5 56.5t40 36.5t59 20t71.5 6t75 -3.5t60 -8.5l-6 -50q-22 4 -58 8t-69 4q-26 0 -49.5 -3t-41.5 -10.5t-28.5 -20.5
t-10.5 -33q0 -24 21 -41.5t53 -33.5t68.5 -33t68.5 -38t53 -49t21 -66q0 -61 -46 -89t-119 -28q-50 0 -95.5 8.5t-77.5 19.5zM156 -141q12 -5 24.5 -7.5t22.5 -2.5q19 0 25 6.5t6 20.5q0 16 -8 34t-18 37h52q12 -19 20 -38.5t8 -36.5q0 -32 -17.5 -50t-59.5 -18
q-15 0 -34.5 3.5t-31.5 8.5z" />
    <glyph glyph-name="scircumflex" unicode="&#x15d;" horiz-adv-x="446" 
d="M68 70q32 -11 74.5 -19.5t89.5 -8.5q20 0 39.5 3t34.5 10.5t24 20.5t9 33q0 28 -21 48.5t-52.5 37.5t-68.5 33t-68.5 35.5t-52.5 44.5t-21 60q0 34 14.5 56.5t40 36.5t59 20t71.5 6t75 -3.5t60 -8.5l-6 -50q-22 4 -58 8t-69 4q-26 0 -49.5 -3t-41.5 -10.5t-28.5 -20.5
t-10.5 -33q0 -24 21 -41.5t53 -33.5t68.5 -33t68.5 -38t53 -49t21 -66q0 -61 -46 -89t-119 -28q-50 0 -95.5 8.5t-77.5 19.5zM99 569l96 161h64l96 -161h-59l-69 113l-69 -113h-59z" />
    <glyph glyph-name="scommaaccent" unicode="&#x219;" horiz-adv-x="446" 
d="M68 70q32 -11 74.5 -19.5t89.5 -8.5q20 0 39.5 3t34.5 10.5t24 20.5t9 33q0 28 -21 48.5t-52.5 37.5t-68.5 33t-68.5 35.5t-52.5 44.5t-21 60q0 34 14.5 56.5t40 36.5t59 20t71.5 6t75 -3.5t60 -8.5l-6 -50q-22 4 -58 8t-69 4q-26 0 -49.5 -3t-41.5 -10.5t-28.5 -20.5
t-10.5 -33q0 -24 21 -41.5t53 -33.5t68.5 -33t68.5 -38t53 -49t21 -66q0 -61 -46 -89t-119 -28q-50 0 -95.5 8.5t-77.5 19.5zM151 -188l83 142h66l-93 -142h-56z" />
    <glyph glyph-name="tbar" unicode="&#x167;" horiz-adv-x="387" 
d="M50 218v49h82v163h-82v49h82l15 142h42v-142h149v-49h-149v-163h129v-49h-129v-117q0 -33 22 -46t51 -13q26 0 51 5.5t42 10.5l3 -50q-21 -8 -46.5 -12t-52.5 -4q-25 0 -48 5.5t-40.5 18t-28 33.5t-10.5 53v116h-82z" />
    <glyph glyph-name="tcaron" unicode="&#x165;" horiz-adv-x="365" 
d="M252 525l53 140h61l-62 -140h-52zM174 101q0 -33 22 -46t51 -13q26 0 50.5 5.5t42.5 10.5l3 -50q-19 -7 -45.5 -11.5t-53.5 -4.5q-25 0 -48 5.5t-40.5 18t-28 33.5t-10.5 53v328h-82v49h82l15 142h42v-142h149v-49h-149v-329z" />
    <glyph glyph-name="uacute" unicode="&#xfa;" horiz-adv-x="571" 
d="M147 161q0 -34 11.5 -57t30 -36.5t43 -19.5t51.5 -6q36 0 73.5 6t61.5 13v418h57v-453q-39 -13 -90.5 -23.5t-103.5 -10.5q-38 0 -72.5 8.5t-60.5 28t-42 51t-16 78.5v321h57v-318zM243 569l89 161h69l-102 -161h-56z" />
    <glyph glyph-name="ubreve" unicode="&#x16d;" horiz-adv-x="571" 
d="M147 161q0 -34 11.5 -57t30 -36.5t43 -19.5t51.5 -6q36 0 73.5 6t61.5 13v418h57v-453q-39 -13 -90.5 -23.5t-103.5 -10.5q-38 0 -72.5 8.5t-60.5 28t-42 51t-16 78.5v321h57v-318zM202 711q1 -32 21.5 -53.5t67.5 -21.5t67.5 21.5t21.5 53.5h50q0 -31 -11 -54t-30 -38.5
t-44.5 -23.5t-53.5 -8q-29 0 -54 8t-44 23.5t-30 38.5t-11 54h50z" />
    <glyph glyph-name="ucircumflex" unicode="&#xfb;" horiz-adv-x="571" 
d="M147 161q0 -34 11.5 -57t30 -36.5t43 -19.5t51.5 -6q36 0 73.5 6t61.5 13v418h57v-453q-39 -13 -90.5 -23.5t-103.5 -10.5q-38 0 -72.5 8.5t-60.5 28t-42 51t-16 78.5v321h57v-318zM155 569l96 161h64l96 -161h-59l-69 113l-69 -113h-59z" />
    <glyph glyph-name="udieresis" unicode="&#xfc;" horiz-adv-x="571" 
d="M147 161q0 -34 11.5 -57t30 -36.5t43 -19.5t51.5 -6q36 0 73.5 6t61.5 13v418h57v-453q-39 -13 -90.5 -23.5t-103.5 -10.5q-38 0 -72.5 8.5t-60.5 28t-42 51t-16 78.5v321h57v-318zM197 610q-22 0 -32.5 11t-10.5 28t10.5 28t32.5 11t32.5 -11t10.5 -28t-10.5 -28
t-32.5 -11zM370 610q-22 0 -32.5 11t-10.5 28t10.5 28t32.5 11q21 0 32 -11t11 -28t-11 -28t-32 -11z" />
    <glyph glyph-name="ugrave" unicode="&#xf9;" horiz-adv-x="571" 
d="M147 161q0 -34 11.5 -57t30 -36.5t43 -19.5t51.5 -6q36 0 73.5 6t61.5 13v418h57v-453q-39 -13 -90.5 -23.5t-103.5 -10.5q-38 0 -72.5 8.5t-60.5 28t-42 51t-16 78.5v321h57v-318zM266 569l-102 161h70l89 -161h-57z" />
    <glyph glyph-name="uhungarumlaut" unicode="&#x171;" horiz-adv-x="571" 
d="M147 161q0 -34 11.5 -57t30 -36.5t43 -19.5t51.5 -6q36 0 73.5 6t61.5 13v418h57v-453q-39 -13 -90.5 -23.5t-103.5 -10.5q-38 0 -72.5 8.5t-60.5 28t-42 51t-16 78.5v321h57v-318zM201 569l52 161h68l-69 -161h-51zM312 569l75 161h72l-96 -161h-51z" />
    <glyph glyph-name="umacron" unicode="&#x16b;" horiz-adv-x="571" 
d="M147 161q0 -34 11.5 -57t30 -36.5t43 -19.5t51.5 -6q36 0 73.5 6t61.5 13v418h57v-453q-39 -13 -90.5 -23.5t-103.5 -10.5q-38 0 -72.5 8.5t-60.5 28t-42 51t-16 78.5v321h57v-318zM174 624v50h234v-50h-234z" />
    <glyph glyph-name="uogonek" unicode="&#x173;" horiz-adv-x="571" 
d="M147 161q0 -34 11.5 -57t30 -36.5t43 -19.5t51.5 -6q36 0 73.5 6t61.5 13v418h57v-453q-6 -7 -14.5 -18t-16 -24t-13 -26.5t-5.5 -25.5q0 -18 11 -24.5t28 -6.5q8 0 22.5 2t25.5 6l8 -46q-11 -5 -27 -8t-33 -3q-33 0 -59.5 16.5t-26.5 54.5q0 27 9 48t20 35
q-29 -6 -60.5 -10t-62.5 -4q-38 0 -72.5 8.5t-60.5 28t-42 51t-16 78.5v321h57v-318z" />
    <glyph glyph-name="uring" unicode="&#x16f;" horiz-adv-x="571" 
d="M147 161q0 -34 11.5 -57t30 -36.5t43 -19.5t51.5 -6q36 0 73.5 6t61.5 13v418h57v-453q-39 -13 -90.5 -23.5t-103.5 -10.5q-38 0 -72.5 8.5t-60.5 28t-42 51t-16 78.5v321h57v-318zM222 589q-24 22 -24 59t24.5 59t68.5 22t68.5 -22t24.5 -59t-24.5 -59t-68.5 -22t-69 22
zM256 617q11 -11 35 -11t34.5 11t10.5 31t-10.5 31t-34.5 11t-34.5 -11t-10.5 -31t10 -31z" />
    <glyph glyph-name="utilde" unicode="&#x169;" horiz-adv-x="571" 
d="M147 161q0 -34 11.5 -57t30 -36.5t43 -19.5t51.5 -6q36 0 73.5 6t61.5 13v418h57v-453q-39 -13 -90.5 -23.5t-103.5 -10.5q-38 0 -72.5 8.5t-60.5 28t-42 51t-16 78.5v321h57v-318zM139 620q11 31 29.5 49.5t53.5 18.5q19 0 36 -5t32.5 -11.5t29.5 -11.5t27 -5
q18 0 23.5 13t10.5 25l46 -14q-9 -37 -27.5 -54.5t-53.5 -17.5q-15 0 -31.5 5t-33.5 11.5t-32 11.5t-27 5q-19 0 -26 -10.5t-12 -23.5z" />
    <glyph glyph-name="wacute" unicode="&#x1e83;" horiz-adv-x="812" 
d="M178 0l-160 479h60l134 -424l162 424h64l160 -424q48 91 87 200.5t56 223.5h53q-20 -134 -65 -250.5t-104 -228.5h-60l-160 427l-162 -427h-65zM381 569l89 161h69l-102 -161h-56z" />
    <glyph glyph-name="wcircumflex" unicode="&#x175;" horiz-adv-x="812" 
d="M178 0l-160 479h60l134 -424l162 424h64l160 -424q48 91 87 200.5t56 223.5h53q-20 -134 -65 -250.5t-104 -228.5h-60l-160 427l-162 -427h-65zM277 569l96 161h64l96 -161h-59l-69 113l-69 -113h-59z" />
    <glyph glyph-name="wdieresis" unicode="&#x1e85;" horiz-adv-x="812" 
d="M178 0l-160 479h60l134 -424l162 424h64l160 -424q48 91 87 200.5t56 223.5h53q-20 -134 -65 -250.5t-104 -228.5h-60l-160 427l-162 -427h-65zM319 610q-22 0 -32.5 11t-10.5 28t10.5 28t32.5 11t32.5 -11t10.5 -28t-10.5 -28t-32.5 -11zM492 610q-22 0 -32.5 11
t-10.5 28t10.5 28t32.5 11q21 0 32 -11t11 -28t-11 -28t-32 -11z" />
    <glyph glyph-name="wgrave" unicode="&#x1e81;" horiz-adv-x="812" 
d="M178 0l-160 479h60l134 -424l162 424h64l160 -424q48 91 87 200.5t56 223.5h53q-20 -134 -65 -250.5t-104 -228.5h-60l-160 427l-162 -427h-65zM379 569l-102 161h70l89 -161h-57z" />
    <glyph glyph-name="yacute" unicode="&#xfd;" horiz-adv-x="574" 
d="M119 -123q39 -11 83 -17t79 -6q75 0 106 30.5t31 91.5v38q-25 -5 -61 -9.5t-76 -4.5q-38 0 -72.5 8.5t-60.5 28t-42 51t-16 78.5v313h57v-310q0 -34 11.5 -57t30 -36.5t43 -19.5t51.5 -6q36 0 73.5 5t61.5 10v414h57v-500q0 -91 -48 -133.5t-145 -42.5q-39 0 -85.5 5.5
t-86.5 17.5zM263 569l89 161h69l-102 -161h-56z" />
    <glyph glyph-name="ycircumflex" unicode="&#x177;" horiz-adv-x="574" 
d="M119 -123q39 -11 83 -17t79 -6q75 0 106 30.5t31 91.5v38q-25 -5 -61 -9.5t-76 -4.5q-38 0 -72.5 8.5t-60.5 28t-42 51t-16 78.5v313h57v-310q0 -34 11.5 -57t30 -36.5t43 -19.5t51.5 -6q36 0 73.5 5t61.5 10v414h57v-500q0 -91 -48 -133.5t-145 -42.5q-39 0 -85.5 5.5
t-86.5 17.5zM155 569l96 161h64l96 -161h-59l-69 113l-69 -113h-59z" />
    <glyph glyph-name="ydieresis" unicode="&#xff;" horiz-adv-x="574" 
d="M119 -123q39 -11 83 -17t79 -6q75 0 106 30.5t31 91.5v38q-25 -5 -61 -9.5t-76 -4.5q-38 0 -72.5 8.5t-60.5 28t-42 51t-16 78.5v313h57v-310q0 -34 11.5 -57t30 -36.5t43 -19.5t51.5 -6q36 0 73.5 5t61.5 10v414h57v-500q0 -91 -48 -133.5t-145 -42.5q-39 0 -85.5 5.5
t-86.5 17.5zM197 610q-22 0 -32.5 11t-10.5 28t10.5 28t32.5 11t32.5 -11t10.5 -28t-10.5 -28t-32.5 -11zM370 610q-22 0 -32.5 11t-10.5 28t10.5 28t32.5 11q21 0 32 -11t11 -28t-11 -28t-32 -11z" />
    <glyph glyph-name="ygrave" unicode="&#x1ef3;" horiz-adv-x="574" 
d="M119 -123q39 -11 83 -17t79 -6q75 0 106 30.5t31 91.5v38q-25 -5 -61 -9.5t-76 -4.5q-38 0 -72.5 8.5t-60.5 28t-42 51t-16 78.5v313h57v-310q0 -34 11.5 -57t30 -36.5t43 -19.5t51.5 -6q36 0 73.5 5t61.5 10v414h57v-500q0 -91 -48 -133.5t-145 -42.5q-39 0 -85.5 5.5
t-86.5 17.5zM272 569l-102 161h70l89 -161h-57z" />
    <glyph glyph-name="zacute" unicode="&#x17a;" horiz-adv-x="483" 
d="M44 0v42l319 388h-311v49h384v-42l-317 -388h325v-49h-400zM216 569l89 161h69l-102 -161h-56z" />
    <glyph glyph-name="zcaron" unicode="&#x17e;" horiz-adv-x="483" 
d="M44 0v42l319 388h-311v49h384v-42l-317 -388h325v-49h-400zM210 569l-96 161h59l69 -113l69 113h59l-96 -161h-64z" />
    <glyph glyph-name="zdotaccent" unicode="&#x17c;" horiz-adv-x="483" 
d="M44 0v42l319 388h-311v49h384v-42l-317 -388h325v-49h-400zM243 611q-22 0 -32.5 11t-10.5 28t10.5 28t32.5 11t32.5 -11t10.5 -28t-10.5 -28t-32.5 -11z" />
    <glyph glyph-name="acute" unicode="&#xb4;" horiz-adv-x="550" 
d="M220 569l89 161h69l-102 -161h-56z" />
    <glyph glyph-name="breve" unicode="&#x2d8;" horiz-adv-x="550" 
d="M186 711q1 -32 21.5 -53.5t67.5 -21.5t67.5 21.5t21.5 53.5h50q0 -31 -11 -54t-30 -38.5t-44.5 -23.5t-53.5 -8q-29 0 -54 8t-44 23.5t-30 38.5t-11 54h50z" />
    <glyph glyph-name="caron" unicode="&#x2c7;" horiz-adv-x="550" 
d="M243 569l-96 161h59l69 -113l69 113h59l-96 -161h-64z" />
    <glyph glyph-name="cedilla" unicode="&#xb8;" horiz-adv-x="550" 
d="M216 -141q12 -5 24.5 -7.5t22.5 -2.5q19 0 25 6.5t6 20.5q0 16 -8 34t-18 37h52q12 -19 20 -38.5t8 -36.5q0 -32 -17.5 -50t-59.5 -18q-15 0 -34.5 3.5t-31.5 8.5z" />
    <glyph glyph-name="circumflex" unicode="&#x2c6;" horiz-adv-x="550" 
d="M147 569l96 161h64l96 -161h-59l-69 113l-69 -113h-59z" />
    <glyph glyph-name="dieresis" unicode="&#xa8;" horiz-adv-x="550" 
d="M188 610q-22 0 -32.5 11t-10.5 28t10.5 28t32.5 11t32.5 -11t10.5 -28t-10.5 -28t-32.5 -11zM361 610q-22 0 -32.5 11t-10.5 28t10.5 28t32.5 11q21 0 32 -11t11 -28t-11 -28t-32 -11z" />
    <glyph glyph-name="dotaccent" unicode="&#x2d9;" horiz-adv-x="550" 
d="M275 611q-22 0 -32.5 11t-10.5 28t10.5 28t32.5 11t32.5 -11t10.5 -28t-10.5 -28t-32.5 -11z" />
    <glyph glyph-name="grave" unicode="`" horiz-adv-x="550" 
d="M273 569l-102 161h70l89 -161h-57z" />
    <glyph glyph-name="hungarumlaut" unicode="&#x2dd;" horiz-adv-x="550" 
d="M155 569l52 161h68l-69 -161h-51zM266 569l75 161h72l-96 -161h-51z" />
    <glyph glyph-name="macron" unicode="&#xaf;" horiz-adv-x="550" 
d="M158 624v50h234v-50h-234z" />
    <glyph glyph-name="ogonek" unicode="&#x2db;" horiz-adv-x="550" 
d="M349 -162q-11 -5 -27 -8t-33 -3q-33 0 -59.5 16.5t-26.5 54.5q0 37 16.5 62.5t28.5 39.5h55q-6 -7 -14.5 -18t-16 -23.5t-13 -26t-5.5 -25.5q0 -18 11 -24.5t28 -6.5q8 0 22.5 2t25.5 6z" />
    <glyph glyph-name="ring" unicode="&#x2da;" horiz-adv-x="550" 
d="M205 589q-24 22 -24 59t24.5 59t68.5 22t68.5 -22t24.5 -59t-24.5 -59t-68.5 -22t-69 22zM239 617q11 -11 35 -11t34.5 11t10.5 31t-10.5 31t-34.5 11t-34.5 -11t-10.5 -31t10 -31z" />
    <glyph glyph-name="tilde" unicode="&#x2dc;" horiz-adv-x="550" 
d="M131 620q11 31 29.5 49.5t53.5 18.5q19 0 36 -5t32.5 -11.5t29.5 -11.5t27 -5q18 0 23.5 13t10.5 25l46 -14q-9 -37 -27.5 -54.5t-53.5 -17.5q-15 0 -31.5 5t-33.5 11.5t-32 11.5t-27 5q-19 0 -26 -10.5t-12 -23.5z" />
    <glyph glyph-name="numbersign" unicode="#" horiz-adv-x="715" 
d="M152 0l39 206h-146l9 49h147l30 156h-147l10 49h147l40 205h58l-41 -205h168l41 205h57l-40 -205h146l-10 -49h-146l-30 -156h146l-10 -49h-146l-39 -206h-58l40 206h-168l-40 -206h-57zM258 255h169l30 156h-169z" />
    <glyph glyph-name="Euro" unicode="&#x20ac;" 
d="M38 213v51h95q-2 16 -2.5 30.5t-0.5 34.5v22.5t1 21.5h-93v51h97q13 134 75.5 192.5t168.5 58.5q39 0 80.5 -4.5t72.5 -11.5l-8 -53q-31 7 -70 11.5t-76 4.5q-40 0 -71 -10t-53.5 -33t-36.5 -61t-20 -94h286l-22 -51h-266q-1 -10 -1 -21.5v-23.5q0 -17 0.5 -33.5
t1.5 -30.5h231l-22 -51h-203q13 -93 58 -132t118 -39q37 0 77 4.5t75 13.5l6 -51q-35 -10 -77.5 -14.5t-81.5 -4.5q-98 0 -159.5 53t-78.5 170h-101z" />
    <glyph glyph-name="dollar" unicode="$" 
d="M286 -85v104q-27 1 -55.5 4.5t-55.5 9t-50.5 12.5t-39.5 15l13 50q35 -14 89.5 -26t111.5 -12q32 0 59.5 3t48 12.5t32 26.5t11.5 45q0 36 -26.5 63t-66 50.5t-86 46t-86 48t-66 57.5t-26.5 75q0 40 15.5 66t41.5 41.5t60.5 22t73.5 8.5v93h54v-93q37 -1 77.5 -5t65.5 -9
l-8 -54q-13 3 -32.5 5.5t-41.5 5t-44 3.5t-40 1q-30 0 -59 -2.5t-51.5 -10.5t-36 -24t-13.5 -43q0 -31 26.5 -56.5t66.5 -48.5t86.5 -46t86.5 -50t66.5 -60.5t26.5 -77.5q0 -41 -14 -67t-38 -42.5t-55.5 -24t-66.5 -10.5v-106h-54z" />
    <glyph glyph-name="yen" unicode="&#xa5;" 
d="M64 217v54h214l-64 105h-150v49h121l-146 240h69l208 -345l190 345h60l-131 -240h131v-49h-157l-57 -105h214v-54h-222v-217h-59v217h-221z" />
    <glyph glyph-name="sterling" unicode="&#xa3;" 
d="M59 0v44q46 29 64 71.5t24 97.5l11 112h-100v51h107l15 129q6 51 25 84t47.5 52t63.5 26.5t73 7.5q40 0 78 -5.5t67 -12.5l-8 -53q-31 8 -68 13t-70 5q-63 0 -101 -24.5t-46 -92.5l-15 -129h253v-51h-259l-12 -116q-5 -49 -21 -89.5t-48 -66.5h377v-53h-457z" />
    <glyph glyph-name="cent" unicode="&#xa2;" 
d="M298 -84v155q-47 4 -86.5 20t-67.5 46.5t-43.5 78t-15.5 114.5q0 69 16.5 116.5t45 78.5t67.5 46t84 18v141h54v-138q45 -2 85.5 -9.5t62.5 -13.5l-9 -53q-12 3 -29.5 7t-38.5 7.5t-44 6t-45 2.5q-38 0 -71.5 -8.5t-59 -31.5t-40.5 -64t-15 -105q0 -110 48.5 -158.5
t140.5 -48.5q40 0 83.5 8.5t73.5 19.5l10 -52q-32 -11 -71 -20t-81 -10v-153h-54z" />
    <glyph glyph-name="florin" unicode="&#x192;" 
d="M211 0v325h-133v51h133v133q0 45 14 76.5t39 51.5t57.5 29t70.5 9q33 0 71.5 -4.5t67.5 -11.5l-8 -52q-29 6 -63.5 10.5t-65.5 4.5q-27 0 -49.5 -5t-38.5 -17.5t-25 -34.5t-9 -56v-133h243v-51h-243v-325h-61z" />
    <glyph glyph-name="zero" unicode="0" 
d="M198 9q-44 19 -73.5 60t-43.5 106t-14 158q0 92 14 157t43.5 106t73.5 60t104 19t104 -18.5t73.5 -59.5t43.5 -106t14 -158t-14 -158t-43.5 -106t-73.5 -59.5t-104 -18.5t-104 18zM170 107q21 -34 53.5 -49t78.5 -15t78.5 15t53.5 49.5t30.5 89.5t9.5 136t-9.5 136
t-30.5 89t-53.5 49t-78.5 15t-78.5 -15t-53.5 -49t-30.5 -89t-9.5 -136t9.5 -136t30.5 -90z" />
    <glyph glyph-name="one" unicode="1" 
d="M300 0v607l-154 -42v55l166 45h49v-665h-61z" />
    <glyph glyph-name="two" unicode="2" 
d="M62 0v49l213 216q32 33 59 61.5t46 56t29.5 56t10.5 61.5q0 36 -13.5 59.5t-36 37.5t-53 19.5t-63.5 5.5q-41 0 -84.5 -6t-75.5 -13l-6 53q29 8 75.5 13.5t89.5 5.5q45 0 87 -8t73.5 -28t50.5 -54t19 -86q0 -44 -13.5 -80t-37 -68.5t-54 -63.5t-63.5 -63l-177 -171h350
v-53h-426z" />
    <glyph glyph-name="three" unicode="3" 
d="M74 61q39 -8 84.5 -13.5t87.5 -5.5q44 0 79 7.5t59.5 25.5t37.5 47.5t13 73.5q0 42 -15.5 69t-41 42.5t-58 21.5t-65.5 6h-67v46l213 231h-325v53h407v-44l-220 -235h5q44 0 85.5 -10.5t73.5 -33t51.5 -58t19.5 -86.5q0 -61 -20 -101t-54 -64t-80.5 -33.5t-98.5 -9.5
q-44 0 -89.5 5t-87.5 15z" />
    <glyph glyph-name="four" unicode="4" 
d="M32 177v41l339 447h84v-439h98v-49h-98v-177h-59v177h-364zM105 226h291v384z" />
    <glyph glyph-name="five" unicode="5" 
d="M104 61q45 -9 83 -14t80 -5q39 0 72 6.5t56.5 24.5t36.5 49t13 80q0 47 -12 77t-34 47.5t-53.5 24t-70.5 6.5q-16 0 -35.5 -1.5t-39 -3.5t-38.5 -5t-34 -6l-23 23l27 301h355v-54h-303l-18 -211q8 1 21 3t28 3.5t31 2.5t31 1q54 0 96.5 -10.5t72.5 -35t46 -64t16 -97.5
q0 -62 -18 -103t-49.5 -65.5t-76 -34.5t-96.5 -10q-44 0 -84.5 4.5t-85.5 15.5z" />
    <glyph glyph-name="six" unicode="6" 
d="M499 606q-34 7 -73.5 11.5t-77.5 4.5q-47 0 -84 -13t-63 -42.5t-40 -78t-14 -119.5q37 11 81.5 19t92.5 8q100 0 156.5 -43t56.5 -147q0 -49 -14.5 -89t-42 -68t-67.5 -43.5t-90 -15.5q-60 0 -105 19t-74 59.5t-43.5 105t-14.5 154.5q0 99 18 165.5t52.5 107t83.5 57.5
t112 17q42 0 83 -4.5t75 -10.5zM175 131q18 -39 52.5 -64t92.5 -25q69 0 110.5 43.5t41.5 119.5q0 77 -37.5 107.5t-115.5 30.5q-39 0 -84.5 -8t-87.5 -22q0 -46 5 -94t23 -88z" />
    <glyph glyph-name="seven" unicode="7" 
d="M127 0l322 612h-365v53h436v-44l-329 -621h-64z" />
    <glyph glyph-name="eight" unicode="8" 
d="M134 175q0 -64 44.5 -98.5t123.5 -34.5t123.5 34.5t44.5 98.5q0 77 -44.5 109t-123.5 32t-123.5 -32t-44.5 -109zM149 327q23 13 48 18q-112 35 -112 159q0 40 15.5 71.5t44 53.5t68.5 34t89 12t89 -12t68.5 -34t44 -53.5t15.5 -71.5q0 -124 -112 -159q25 -5 48 -17.5
t40 -33.5t27.5 -50.5t10.5 -68.5q0 -83 -58.5 -134t-172.5 -51t-172.5 51t-58.5 134q0 39 10.5 68.5t27.5 50.5t40 33zM148 502q0 -66 41.5 -96t112.5 -30t112.5 30t41.5 96q0 57 -40.5 88.5t-113.5 31.5t-113.5 -31.5t-40.5 -88.5z" />
    <glyph glyph-name="nine" unicode="9" 
d="M106 60q34 -8 71 -13t70 -5q57 0 97 17.5t65 50t36.5 80t12.5 107.5q-37 -11 -81.5 -19t-92.5 -8q-100 0 -156.5 43t-56.5 147q0 49 15 89t43 68t68 43t90 15q60 0 104.5 -19t73.5 -59.5t43 -104.5t14 -154q0 -102 -20 -169.5t-56 -107t-86.5 -55.5t-111.5 -16
q-40 0 -78.5 5t-69.5 13zM133 461q0 -77 37.5 -107.5t115.5 -30.5q39 0 84.5 8t87.5 22q0 46 -5 94t-22.5 87t-51.5 64t-92 25q-69 0 -111.5 -43t-42.5 -119z" />
    <glyph glyph-name="fraction" unicode="&#x2044;" horiz-adv-x="514" 
d="M11 0l428 665h64l-429 -665h-63z" />
    <glyph glyph-name="onequarter" unicode="&#xbc;" horiz-adv-x="787" 
d="M480 77v39l147 227h63v-223h50v-43h-50v-77h-54v77h-156zM537 120h99v152zM115 0l428 665h64l-429 -665h-63zM138 331v285l-88 -22v46l103 25h37v-334h-52z" />
    <glyph glyph-name="onehalf" unicode="&#xbd;" horiz-adv-x="782" 
d="M110 0l428 665h64l-429 -665h-63zM476 0v37l104 105q19 19 32.5 33t21.5 25t12 22t4 24q0 30 -21.5 41t-50.5 11q-23 0 -47.5 -4t-41.5 -8l-4 43q20 6 44.5 9t50.5 3q54 0 87.5 -22.5t33.5 -72.5q0 -38 -23.5 -67t-63.5 -68l-70 -68h159v-43h-227zM138 331v285l-88 -22
v46l103 25h37v-334h-52z" />
    <glyph glyph-name="threequarters" unicode="&#xbe;" horiz-adv-x="787" 
d="M480 77v39l147 227h63v-223h50v-43h-50v-77h-54v77h-156zM537 120h99v152zM45 376q21 -5 42.5 -9t50.5 -4q17 0 32 3t26.5 10.5t18.5 20.5t7 33q0 18 -7 29.5t-19.5 17.5t-29 8t-35.5 2h-43v37l105 97h-150v44h218v-41l-105 -97h1q23 0 44 -5.5t37 -17t25.5 -30
t9.5 -43.5q0 -57 -38.5 -85t-96.5 -28q-32 0 -54.5 3.5t-45.5 10.5zM159 0l428 665h64l-429 -665h-63z" />
    <glyph glyph-name="percent" unicode="%" horiz-adv-x="860" 
d="M142 400q13 -15 30.5 -21.5t36.5 -6.5q18 0 35 6t29.5 21t20 40t7.5 63q0 39 -7.5 64t-20 39.5t-29.5 20.5t-35 6q-19 0 -36.5 -6t-30.5 -20.5t-20.5 -39.5t-7.5 -63t7.5 -63t20.5 -40zM148 337q-27 10 -47 31t-31 54.5t-11 80.5q0 48 11 81t31 53.5t47.5 29.5t60.5 9
q32 0 59.5 -9t47.5 -30t31 -54t11 -81q0 -47 -11 -80t-31 -54t-47.5 -31t-59.5 -10q-33 0 -61 10zM586 65q13 -15 30 -21.5t36 -6.5t35.5 6t29.5 21t20.5 40t7.5 63q0 39 -7.5 64t-20.5 39.5t-29.5 20.5t-35.5 6t-36 -6t-30 -20.5t-20.5 -39.5t-7.5 -63t7.5 -63t20.5 -40z
M591 2q-27 10 -47 31t-31 54.5t-11 80.5q0 48 11 81t31 53.5t47.5 29.5t60.5 9q32 0 59.5 -9t47.5 -30t31 -54t11 -81q0 -47 -11 -80t-31 -54t-47.5 -31t-59.5 -10q-33 0 -61 10zM177 0l433 673h66l-434 -673h-65z" />
    <glyph glyph-name="perthousand" unicode="&#x2030;" horiz-adv-x="1241" 
d="M966 65q13 -15 30.5 -21.5t36.5 -6.5q18 0 35 6t29.5 21t20 40t7.5 63q0 39 -7.5 64t-20 39.5t-29.5 20.5t-35 6q-19 0 -36.5 -6t-30.5 -20.5t-20.5 -39.5t-7.5 -63t7.5 -63t20.5 -40zM972 2q-27 10 -47 31t-31 54.5t-11 80.5q0 48 11 81t31 53.5t47.5 29.5t60.5 9
q32 0 59.5 -9t47.5 -30t31 -54t11 -81q0 -47 -11 -80t-31 -54t-47.5 -31t-59.5 -10q-33 0 -61 10zM142 400q13 -15 30.5 -21.5t36.5 -6.5q18 0 35 6t29.5 21t20 40t7.5 63q0 39 -7.5 64t-20 39.5t-29.5 20.5t-35 6q-19 0 -36.5 -6t-30.5 -20.5t-20.5 -39.5t-7.5 -63t7.5 -63
t20.5 -40zM148 337q-27 10 -47 31t-31 54.5t-11 80.5q0 48 11 81t31 53.5t47.5 29.5t60.5 9q32 0 59.5 -9t47.5 -30t31 -54t11 -81q0 -47 -11 -80t-31 -54t-47.5 -31t-59.5 -10q-33 0 -61 10zM586 65q13 -15 30 -21.5t36 -6.5t35.5 6t29.5 21t20.5 40t7.5 63q0 39 -7.5 64
t-20.5 39.5t-29.5 20.5t-35.5 6t-36 -6t-30 -20.5t-20.5 -39.5t-7.5 -63t7.5 -63t20.5 -40zM591 2q-27 10 -47 31t-31 54.5t-11 80.5q0 48 11 81t31 53.5t47.5 29.5t60.5 9q32 0 59.5 -9t47.5 -30t31 -54t11 -81q0 -47 -11 -80t-31 -54t-47.5 -31t-59.5 -10q-33 0 -61 10z
M177 0l433 673h66l-434 -673h-65z" />
    <glyph glyph-name="plus" unicode="+" 
d="M74 297v45h204v181h48v-181h205v-45h-205v-182h-48v182h-204z" />
    <glyph glyph-name="minus" unicode="&#x2212;" 
d="M74 297v45h457v-45h-457z" />
    <glyph glyph-name="multiply" unicode="&#xd7;" 
d="M91 160l175 159l-170 156l35 32l170 -156l176 160l36 -32l-176 -160l173 -158l-34 -32l-175 159l-174 -159z" />
    <glyph glyph-name="divide" unicode="&#xf7;" 
d="M277 121q-11 11 -11 30t11.5 29t29.5 10q19 0 30 -10t11 -29t-11 -29.5t-30 -10.5q-18 0 -30 10zM277 459q-11 11 -11 30t11.5 29t29.5 10q19 0 30 -10t11 -29t-11 -29.5t-30 -10.5q-18 0 -30 10zM74 297v45h457v-45h-457z" />
    <glyph glyph-name="equal" unicode="=" 
d="M74 197v44h457v-44h-457zM74 397v44h457v-44h-457z" />
    <glyph glyph-name="notequal" unicode="&#x2260;" 
d="M155 58l65 139h-146v44h166l72 156h-238v44h259l65 139h50l-65 -139h148v-44h-168l-73 -156h241v-44h-262l-64 -139h-50z" />
    <glyph glyph-name="plusminus" unicode="&#xb1;" 
d="M74 297v45h204v181h48v-181h205v-45h-205v-182h-48v182h-204zM74 0v45h457v-45h-457z" />
    <glyph glyph-name="less" unicode="&#x3c;" 
d="M74 297v44l457 186v-47l-397 -161l397 -161v-47z" />
    <glyph glyph-name="greater" unicode="&#x3e;" 
d="M74 111v47l397 161l-397 161v47l457 -186v-44z" />
    <glyph glyph-name="lessequal" unicode="&#x2264;" 
d="M74 297v44l457 186v-47l-399 -161l399 -161v-47zM74 0v45h457v-45h-457z" />
    <glyph glyph-name="greaterequal" unicode="&#x2265;" 
d="M74 0v45h457v-45h-457zM74 111v47l397 161l-397 161v47l457 -186v-44z" />
    <glyph glyph-name="asciicircum" unicode="^" 
d="M108 361l172 304h44l173 -304h-55l-140 249l-139 -249h-55z" />
    <glyph glyph-name="asciitilde" unicode="~" 
d="M63 292q12 34 41 56t74 22q21 0 55.5 -8.5t71.5 -18.5t70 -18.5t51 -8.5q35 0 49.5 14.5t26.5 36.5l40 -18q-12 -34 -41 -56t-74 -22q-20 0 -53.5 8.5t-70.5 18.5t-70.5 18.5t-53.5 8.5q-35 0 -49.5 -14t-26.5 -37z" />
    <glyph glyph-name="approxequal" unicode="&#x2248;" 
d="M63 201q12 34 41 56t74 22q21 0 55.5 -8.5t71.5 -18.5t70 -18.5t51 -8.5q35 0 49.5 14.5t26.5 36.5l40 -18q-12 -34 -41 -56t-74 -22q-20 0 -53.5 8.5t-70.5 18.5t-70.5 18.5t-53.5 8.5q-35 0 -49.5 -14t-26.5 -37zM63 377q12 34 41 56t74 22q21 0 55.5 -8.5t71.5 -18.5
t70 -18.5t51 -8.5q35 0 49.5 14.5t26.5 36.5l40 -18q-12 -34 -41 -56t-74 -22q-20 0 -53.5 8.5t-70.5 18.5t-70.5 18.5t-53.5 8.5q-35 0 -49.5 -14t-26.5 -37z" />
    <glyph glyph-name="logicalnot" unicode="&#xac;" 
d="M74 397v44h457v-244h-49v200h-408z" />
    <glyph glyph-name="mu" unicode="&#xb5;" horiz-adv-x="571" 
d="M90 -188v667h57v-318q0 -34 11.5 -57t30 -36.5t43 -19.5t51.5 -6q36 0 73.5 6t61.5 13v418h57v-453q-39 -13 -90.5 -23.5t-103.5 -10.5q-41 0 -75 10t-59 35v-225h-57z" />
    <glyph glyph-name="infinity" unicode="&#x221e;" horiz-adv-x="682" 
d="M99 320q0 -41 24 -58t60 -17q34 0 62.5 17.5t68.5 55.5q-40 38 -68.5 57.5t-62.5 19.5q-36 0 -60 -17t-24 -58zM368 322q40 -38 68.5 -57.5t62.5 -19.5q36 0 60 17t24 58t-24 58t-60 17q-34 0 -62.5 -17.5t-68.5 -55.5zM418 221q-37 21 -77 62q-40 -41 -77.5 -61.5
t-80.5 -20.5q-60 0 -98.5 30t-38.5 89t38.5 89t98.5 30q43 0 80.5 -20.5t77.5 -61.5q40 41 77.5 61.5t80.5 20.5q60 0 98.5 -30t38.5 -89t-38.5 -89t-98.5 -30q-43 0 -81 20z" />
    <glyph glyph-name="lozenge" unicode="&#x25ca;" 
d="M278 0l-208 333l208 333h49l208 -333l-208 -333h-49zM302 60l170 273l-170 273l-169 -273z" />
    <glyph glyph-name="integral" unicode="&#x222b;" horiz-adv-x="286" 
d="M-25 -144q3 0 7 -0.5t8 -0.5q60 0 93 27.5t33 88.5v599q0 79 44.5 121.5t129.5 42.5h14t12 -1l-5 -48q-3 0 -7 0.5t-8 0.5q-60 0 -93 -27.5t-33 -88.5v-599q0 -79 -44.5 -121.5t-129.5 -42.5h-14t-12 1z" />
    <glyph glyph-name="partialdiff" unicode="&#x2202;" 
d="M180 641q33 14 74 24t97 10q94 0 138 -47.5t44 -147.5q0 -30 -3.5 -67.5t-11.5 -79.5q-18 -90 -44.5 -154.5t-63 -106.5t-83.5 -61.5t-106 -19.5q-81 0 -127 45.5t-46 123.5q0 112 63 173.5t184 61.5q57 0 103 -13.5t69 -26.5q8 41 10.5 71t2.5 55q0 82 -34.5 115
t-103.5 33q-49 0 -85 -10t-70 -23zM101 161q0 -57 34 -90t93 -33q44 0 79.5 14.5t63.5 46.5t49 83t38 124q-32 17 -71 29.5t-97 12.5q-42 0 -77 -10t-59.5 -32t-38.5 -58t-14 -87z" />
    <glyph glyph-name="product" unicode="&#x220f;" horiz-adv-x="715" 
d="M128 0v621h-82v44h623v-44h-82v-621h-55v621h-349v-621h-55z" />
    <glyph glyph-name="radical" unicode="&#x221a;" 
d="M280 0l-145 434h-97v45h141l134 -419l199 605h54l-218 -665h-68z" />
    <glyph glyph-name="summation" unicode="&#x2211;" 
d="M76 0v40l245 306l-245 281v38h448v-44h-374l237 -274l-238 -302h402v-45h-475z" />
    <glyph glyph-name="Omega" unicode="&#x2126;" horiz-adv-x="693" 
d="M55 0v49h142q-63 37 -92 107t-29 178q0 178 69 258.5t201 80.5t201.5 -80.5t69.5 -258.5q0 -108 -29 -178t-92 -107h142v-49h-252v46q43 12 75.5 33.5t54.5 56t33 83.5t11 115q0 81 -14 136.5t-41 90t-67 49.5t-92 15t-92 -15t-67 -49.5t-40.5 -90t-13.5 -136.5
q0 -66 11 -115t33 -83.5t54.5 -56t75.5 -33.5v-46h-252z" />
    <glyph glyph-name="Delta" unicode="&#x2206;" 
d="M40 0l229 666h66l230 -666h-525zM116 45h374l-188 559z" />
    <glyph glyph-name="pi" unicode="&#x3c0;" horiz-adv-x="610" 
d="M137 0v429h-107v50h550v-50h-105v-429h-57v429h-224v-429h-57z" />
    <glyph glyph-name="uni03A9" unicode="&#x3a9;" horiz-adv-x="693" 
d="M55 0v49h142q-63 37 -92 107t-29 178q0 178 69 258.5t201 80.5t201.5 -80.5t69.5 -258.5q0 -108 -29 -178t-92 -107h142v-49h-252v46q43 12 75.5 33.5t54.5 56t33 83.5t11 115q0 81 -14 136.5t-41 90t-67 49.5t-92 15t-92 -15t-67 -49.5t-40.5 -90t-13.5 -136.5
q0 -66 11 -115t33 -83.5t54.5 -56t75.5 -33.5v-46h-252z" />
    <glyph glyph-name="uni0394" unicode="&#x394;" 
d="M40 0l229 666h66l230 -666h-525zM116 45h374l-188 559z" />
    <glyph glyph-name="period" unicode="." horiz-adv-x="274" 
d="M107 2q-11 11 -11 30t11.5 29t29.5 10q19 0 30 -10t11 -29t-11 -29.5t-30 -10.5q-18 0 -30 10z" />
    <glyph glyph-name="comma" unicode="," horiz-adv-x="275" 
d="M24 -133l82 201h62l-90 -201h-54z" />
    <glyph glyph-name="colon" unicode=":" horiz-adv-x="275" 
d="M107 2q-11 11 -11 30t11.5 29t29.5 10q19 0 30 -10t11 -29t-11 -29.5t-30 -10.5q-18 0 -30 10zM108 418q-11 11 -11 30t11.5 29t29.5 10q19 0 30 -10t11 -29t-11 -29.5t-30 -10.5q-18 0 -30 10z" />
    <glyph glyph-name="semicolon" unicode=";" horiz-adv-x="275" 
d="M108 418q-11 11 -11 30t11.5 29t29.5 10q19 0 30 -10t11 -29t-11 -29.5t-30 -10.5q-18 0 -30 10zM24 -133l82 201h62l-90 -201h-54z" />
    <glyph glyph-name="periodcentered" unicode="&#xb7;" horiz-adv-x="275" 
d="M107 241q-11 11 -11 30t11.5 29t29.5 10q19 0 30 -10t11 -29t-11 -29.5t-30 -10.5q-18 0 -30 10z" />
    <glyph glyph-name="ellipsis" unicode="&#x2026;" horiz-adv-x="853" 
d="M107 2q-11 11 -11 30t11.5 29t29.5 10q19 0 30 -10t11 -29t-11 -29.5t-30 -10.5q-18 0 -30 10zM396 2q-11 11 -11 30t11.5 29t29.5 10q19 0 30 -10t11 -29t-11 -29.5t-30 -10.5q-18 0 -30 10zM686 2q-11 11 -11 30t11.5 29t29.5 10q19 0 30 -10t11 -29t-11 -29.5
t-30 -10.5q-18 0 -30 10z" />
    <glyph glyph-name="question" unicode="?" horiz-adv-x="415" 
d="M169 150v60q0 41 11.5 71.5t29.5 55t38 45t38 41t29.5 43t11.5 51.5q0 57 -31.5 81t-95.5 24q-38 0 -77.5 -9.5t-68.5 -22.5l-17 51q29 12 74 23t92 11q81 0 132 -37.5t51 -117.5q0 -38 -12 -65.5t-30.5 -49.5t-39.5 -42t-39.5 -42t-30.5 -48.5t-12 -62.5v-60h-53zM165 2
q-11 11 -11 30t11.5 29t30.5 10q18 0 29 -10t11 -29t-11 -29.5t-29 -10.5q-19 0 -31 10z" />
    <glyph glyph-name="exclam" unicode="!" horiz-adv-x="298" 
d="M123 150l-4 515h60l-4 -515h-52zM119 2q-11 11 -11 30t11.5 29t30.5 10q18 0 29 -10t11 -29t-11 -29.5t-29 -10.5q-19 0 -31 10z" />
    <glyph glyph-name="questiondown" unicode="&#xbf;" horiz-adv-x="373" 
d="M357 -162q-29 -12 -74 -23t-92 -11q-81 0 -132 37.5t-51 117.5q0 38 12 65.5t30.5 49.5t39.5 42t39.5 42t30.5 48.5t12 62.5v60h53v-60q0 -41 -11.5 -71.5t-29.5 -55t-38 -45t-38 -41t-29.5 -43.5t-11.5 -51q0 -57 31.5 -81t95.5 -24q38 0 77.5 9.5t68.5 22.5zM169 418
q-11 10 -11 29t11 29.5t29 10.5q19 0 30.5 -10.5t11.5 -29.5t-11.5 -29t-30.5 -10q-18 0 -29 10z" />
    <glyph glyph-name="exclamdown" unicode="&#xa1;" horiz-adv-x="298" 
d="M119 -188l4 517h52l4 -517h-60zM119 418q-11 10 -11 29t11.5 29.5t30.5 10.5q18 0 29 -10.5t11 -29.5t-11 -29t-29 -10q-19 0 -31 10z" />
    <glyph glyph-name="parenleft" unicode="(" horiz-adv-x="306" 
d="M232 -188q-81 88 -123.5 207t-42.5 251t42.5 252t123.5 208h64q-38 -47 -68.5 -95.5t-53 -104t-34.5 -119.5t-12 -141t12 -141t34.5 -119t53 -103.5t68.5 -94.5h-64z" />
    <glyph glyph-name="parenright" unicode=")" horiz-adv-x="306" 
d="M10 -188q37 46 68 94.5t53.5 103.5t34.5 119t12 141t-12 141t-34.5 119.5t-53.5 104t-68 95.5h64q81 -88 123.5 -208t42.5 -252t-42.5 -251t-123.5 -207h-64z" />
    <glyph glyph-name="braceleft" unicode="{" horiz-adv-x="359" 
d="M343 -189q-6 -2 -15 -3t-19.5 -2t-21 -1.5t-17.5 -0.5q-40 0 -67 10.5t-43.5 30t-24 47t-7.5 62.5q0 24 3 52t7 56.5t7 56.5t3 52q0 43 -25 57t-73 15v56q48 1 73 15.5t25 56.5q0 23 -3 51t-7 56.5t-7 57t-3 53.5q0 34 7.5 62t24 47t43.5 29.5t67 10.5q7 0 17.5 -0.5
t21 -1.5t19.5 -2.5l15 -2.5l-6 -52q-12 3 -32 5t-34 2q-29 0 -46 -7t-26 -20t-11.5 -31t-2.5 -39q0 -24 3 -52.5t6 -57.5t6 -57t3 -50q0 -27 -6 -45t-16 -29.5t-22 -17.5t-24 -9q12 -3 24 -8.5t22 -17t16 -30t6 -45.5q0 -23 -3 -50.5t-6 -57t-6 -57.5t-3 -51q0 -22 2.5 -40
t11.5 -31t26 -20t46 -7q14 0 34 2t32 5z" />
    <glyph glyph-name="braceright" unicode="}" horiz-adv-x="359" 
d="M22 -137q12 -3 32 -5t34 -2q28 0 45 7t26 20t12 31t3 40q0 23 -3 51t-6 57.5t-6 57t-3 50.5q0 27 6 45.5t16 30t22 17t24 8.5q-12 3 -24 9t-22 17.5t-16 29.5t-6 45q0 22 3 50t6 57t6 57.5t3 52.5q0 21 -3 39t-12 31t-26 20t-45 7q-14 0 -34 -2t-32 -5l-6 52l15 2.5
t19.5 2.5t20.5 1.5t18 0.5q79 0 110.5 -40t31.5 -109q0 -25 -3 -53.5t-7 -57t-7 -56.5t-3 -51q0 -42 25 -56.5t73 -15.5v-56q-48 -1 -73 -15t-25 -57q0 -24 3 -52t7 -56.5t7 -56.5t3 -52q0 -70 -31.5 -110t-110.5 -40q-8 0 -18 0.5t-20.5 1.5t-19.5 2t-15 3z" />
    <glyph glyph-name="bracketleft" unicode="[" horiz-adv-x="312" 
d="M121 -188v918h180v-49h-123v-820h123v-49h-180z" />
    <glyph glyph-name="bracketright" unicode="]" horiz-adv-x="312" 
d="M11 -188v49h123v820h-123v49h180v-918h-180z" />
    <glyph glyph-name="slash" unicode="/" horiz-adv-x="479" 
d="M38 -53l354 783h59l-356 -783h-57z" />
    <glyph glyph-name="backslash" unicode="\" horiz-adv-x="479" 
d="M382 -53l-356 783h59l354 -783h-57z" />
    <glyph glyph-name="underscore" unicode="_" horiz-adv-x="681" 
d="M0 -51v40h681v-40h-681z" />
    <glyph glyph-name="hyphen" unicode="-" horiz-adv-x="385" 
d="M66 244v54h253v-54h-253z" />
    <glyph glyph-name="uni00AD" unicode="&#xad;" horiz-adv-x="385" 
d="M66 244v54h253v-54h-253z" />
    <glyph glyph-name="endash" unicode="&#x2013;" horiz-adv-x="581" 
d="M66 247v48h449v-48h-449z" />
    <glyph glyph-name="emdash" unicode="&#x2014;" horiz-adv-x="801" 
d="M66 247v48h669v-48h-669z" />
    <glyph glyph-name="brokenbar" unicode="&#xa6;" horiz-adv-x="294" 
d="M121 399v401h52v-401h-52zM121 -200v401h52v-401h-52z" />
    <glyph glyph-name="bar" unicode="|" horiz-adv-x="294" 
d="M121 -200v1000h52v-1000h-52z" />
    <glyph glyph-name="guillemotleft" unicode="&#xab;" horiz-adv-x="546" 
d="M210 90l-144 181l144 181h60l-139 -181l139 -181h-60zM420 90l-144 181l144 181h60l-139 -181l139 -181h-60z" />
    <glyph glyph-name="guillemotright" unicode="&#xbb;" horiz-adv-x="546" 
d="M276 90l139 181l-139 181h60l144 -181l-144 -181h-60zM66 90l139 181l-139 181h60l144 -181l-144 -181h-60z" />
    <glyph glyph-name="guilsinglleft" unicode="&#x2039;" horiz-adv-x="344" 
d="M218 90l-152 181l152 181h60l-147 -181l147 -181h-60z" />
    <glyph glyph-name="guilsinglright" unicode="&#x203a;" horiz-adv-x="344" 
d="M66 90l147 181l-147 181h60l152 -181l-152 -181h-60z" />
    <glyph glyph-name="quotesinglbase" unicode="&#x201a;" horiz-adv-x="297" 
d="M81 -160l76 213h59l-83 -213h-52z" />
    <glyph glyph-name="quotedblbase" unicode="&#x201e;" horiz-adv-x="484" 
d="M81 -160l66 213h59l-73 -213h-52zM268 -160l76 213h59l-83 -213h-52z" />
    <glyph glyph-name="quoteleft" unicode="&#x2018;" horiz-adv-x="297" 
d="M81 452l83 213h52l-76 -213h-59z" />
    <glyph glyph-name="quotedblleft" unicode="&#x201c;" horiz-adv-x="484" 
d="M81 452l83 213h52l-76 -213h-59zM278 452l73 213h52l-66 -213h-59z" />
    <glyph glyph-name="quoteright" unicode="&#x2019;" horiz-adv-x="297" 
d="M81 452l76 213h59l-83 -213h-52z" />
    <glyph glyph-name="quotedblright" unicode="&#x201d;" horiz-adv-x="484" 
d="M81 452l66 213h59l-73 -213h-52zM268 452l76 213h59l-83 -213h-52z" />
    <glyph glyph-name="quotesingle" unicode="'" horiz-adv-x="297" 
d="M125 452l-6 213h59l-7 -213h-46z" />
    <glyph glyph-name="quotedbl" unicode="&#x22;" horiz-adv-x="450" 
d="M125 452l-6 213h59l-7 -213h-46zM278 452l-6 213h59l-7 -213h-46z" />
    <glyph glyph-name="ampersand" unicode="&#x26;" horiz-adv-x="590" 
d="M520 0l-58 66q-37 -35 -86.5 -55.5t-112.5 -20.5q-100 0 -154.5 45.5t-54.5 130.5q0 36 10.5 65t30.5 53t47.5 44t62.5 39q-16 18 -33 37t-30.5 39.5t-22.5 43.5t-9 50q0 68 43 103.5t112 35.5q34 0 64 -8.5t51.5 -25t34 -41.5t12.5 -58q0 -31 -10.5 -58t-28.5 -50.5
t-42 -43.5t-52 -38l173 -203q22 23 37.5 53t27.5 62l46 -18q-14 -40 -32.5 -74.5t-46.5 -65.5l91 -107h-70zM244 324q-33 -19 -57 -35t-40.5 -33t-24.5 -38t-8 -50q0 -36 11 -60t31 -39t48 -21t63 -6q51 0 91.5 19t72.5 46zM258 396q49 32 78.5 64t29.5 81q0 22 -8 37.5
t-22 25t-32 14t-37 4.5q-18 0 -35.5 -4t-31 -13t-21.5 -24.5t-8 -39.5q0 -38 26 -71.5t61 -73.5z" />
    <glyph glyph-name="degree" unicode="&#xb0;" horiz-adv-x="385" 
d="M101 478q-34 32 -34 83t34.5 82.5t91.5 31.5t91.5 -31.5t34.5 -82.5t-34.5 -82.5t-91.5 -31.5t-92 31zM119 561q0 -32 20 -51t54 -19t54 19t20 51t-20 51t-54 19t-54 -19t-20 -51z" />
    <glyph glyph-name="asterisk" unicode="*" horiz-adv-x="418" 
d="M86 418l82 91l-126 36l15 42l129 -40v118h46v-118l129 40l15 -42l-126 -36l82 -91l-35 -31l-88 100l-88 -100z" />
    <glyph glyph-name="dagger" unicode="&#x2020;" horiz-adv-x="438" 
d="M191 148v283h-158v48h158v186h55v-186h159v-48h-159v-283h-55z" />
    <glyph glyph-name="daggerdbl" unicode="&#x2021;" horiz-adv-x="438" 
d="M191 148v164h-158v49h158v101h-158v49h158v154h55v-154h159v-49h-159v-101h159v-49h-159v-164h-55z" />
    <glyph glyph-name="section" unicode="&#xa7;" horiz-adv-x="548" 
d="M69 -99q16 -7 39 -15t49 -14.5t54 -11t55 -4.5q31 0 58 5.5t47.5 18.5t32 34t11.5 51q0 38 -26 65.5t-65 50t-84 43t-84 44.5t-65 55t-26 75t17.5 71.5t46.5 44.5q-23 20 -37 44.5t-14 56.5q0 46 18.5 77t48.5 49.5t69.5 26t81.5 7.5q25 0 49 -1.5t46 -4t39.5 -5
t29.5 -5.5l-8 -54q-12 3 -31 6t-41 5.5t-43.5 4t-38.5 1.5q-30 0 -57.5 -4.5t-49.5 -16t-35 -31.5t-13 -50q0 -32 25.5 -55.5t64.5 -45t83.5 -42.5t83.5 -47t64.5 -60.5t25.5 -81.5q0 -44 -14.5 -72t-39.5 -46q19 -20 30 -44.5t11 -54.5q0 -50 -18.5 -82t-48.5 -51
t-68.5 -26.5t-78.5 -7.5q-26 0 -55.5 4t-58 11t-53.5 14.5t-42 15.5zM312 154q47 -22 86 -50q15 13 24 32t9 46q0 37 -25.5 64.5t-64.5 49.5t-84 42.5t-84 44.5q-21 -12 -33.5 -31.5t-12.5 -48.5q0 -33 28 -57.5t69 -46.5t88 -45z" />
    <glyph glyph-name="bullet" unicode="&#x2022;" horiz-adv-x="385" 
d="M132 211q-24 22 -24 60t24 59t61 21t60 -21t23 -59t-23 -59.5t-60 -21.5t-61 21z" />
    <glyph glyph-name="trademark" unicode="&#x2122;" horiz-adv-x="799" 
d="M140 366v259h-102v40h254v-40h-101v-259h-51zM362 366v299h55l120 -190l121 190h55v-299h-48v231l-107 -168h-42l-105 168v-231h-49z" />
    <glyph glyph-name="registered" unicode="&#xae;" horiz-adv-x="660" 
d="M283 433q8 -1 19 -2t22 -1q29 0 47 8.5t18 44.5q0 26 -14.5 36t-46.5 10h-45v-96zM237 283v283h95q49 0 75.5 -19t26.5 -63q0 -38 -15 -54t-35 -22q15 -8 23.5 -23t16.5 -35l24 -67h-48l-26 68q-5 14 -16 28t-37 14q-10 0 -20 0.5t-18 1.5v-112h-46zM123 231
q-73 67 -73 188t73.5 188t206.5 67t206.5 -67t73.5 -188t-73.5 -188t-206.5 -67t-207 67zM97 419q0 -104 60 -159t173 -55t173 55t60 159t-60 159t-173 55t-173 -55t-60 -159z" />
    <glyph glyph-name="copyright" unicode="&#xa9;" horiz-adv-x="794" 
d="M525 162q-19 -8 -52.5 -13.5t-62.5 -5.5q-40 0 -71.5 10t-53.5 32t-33.5 58t-11.5 89q0 52 11.5 88.5t33.5 58.5t54 32t72 10q14 0 30.5 -1.5t31.5 -4t28 -5t21 -5.5l-8 -44q-17 5 -46 9.5t-56 4.5q-30 0 -52.5 -5.5t-37.5 -21.5t-22.5 -43.5t-7.5 -72.5t7.5 -72.5
t22.5 -43.5t37.5 -21.5t52.5 -5.5q27 0 56.5 5.5t48.5 11.5zM397 -10q-337 0 -337 342q0 343 337 343t337 -343q0 -342 -337 -342zM179 109q70 -74 218 -74t218 74.5t70 222.5t-70 223t-218 75t-218 -75t-70 -223t70 -223z" />
    <glyph glyph-name="paragraph" unicode="&#xb6;" horiz-adv-x="644" 
d="M342 -158v394q-15 -1 -31 -1h-32q-61 0 -103.5 11.5t-69.5 37.5t-39 68t-12 104q0 58 12.5 98t39.5 65t69.5 35.5t102.5 10.5h117v-823h-54zM474 -158v823h54v-823h-54z" />
    <glyph glyph-name="at" unicode="@" horiz-adv-x="871" 
d="M513 350q-18 5 -38 7.5t-40 2.5q-49 0 -76 -33t-27 -105q0 -47 8 -76t20.5 -44.5t27.5 -20.5t30 -5q32 0 54.5 12.5t40.5 29.5v232zM697 -121q-59 -24 -124 -40t-138 -16q-112 0 -186 33.5t-117.5 89t-61 128t-17.5 150.5q0 80 22 152t68.5 126t120 86t175.5 32
q106 0 178.5 -27.5t117 -74t64 -107.5t19.5 -127q0 -137 -43.5 -201.5t-128.5 -64.5q-48 0 -74.5 16.5t-40.5 34.5q-25 -18 -50.5 -30.5t-63.5 -12.5q-32 0 -57.5 11t-44.5 34.5t-29 61t-10 90.5q0 46 12 81t33.5 58t50.5 34.5t63 11.5q37 0 69 -5.5t63 -15.5v-218
q0 -21 3 -39t12 -31.5t24.5 -21.5t40.5 -8q60 0 86.5 52.5t26.5 164.5q0 57 -15.5 108.5t-52.5 90.5t-99 61.5t-154 22.5t-154.5 -28t-101 -75.5t-55.5 -110t-17 -131.5q0 -68 13 -131t48.5 -111t99 -77t164.5 -29q71 0 130.5 15.5t116.5 36.5z" />
    <glyph glyph-name="ordfeminine" unicode="&#xaa;" horiz-adv-x="358" 
d="M232 501q-38 8 -76 8q-12 0 -23.5 -2t-21 -7.5t-15 -16t-5.5 -27.5q0 -30 20.5 -41.5t50.5 -11.5q34 0 70 11v87zM280 389q-20 -7 -52 -15.5t-67 -8.5q-22 0 -42.5 4.5t-36.5 15t-25.5 28t-9.5 44.5t9.5 45t25.5 28t35 14t39 4q17 0 38 -2t38 -6v41q0 34 -20 44t-49 10
q-25 0 -47 -3.5t-39 -8.5l-7 40q23 5 47 8.5t47 3.5q24 0 45 -4.5t37 -15.5t25 -29t9 -44v-193z" />
    <glyph glyph-name="ordmasculine" unicode="&#xba;" horiz-adv-x="358" 
d="M80 397q-38 37 -38 120t38 119.5t100 36.5q31 0 56 -9t43 -27.5t28 -48t10 -71.5t-10 -71.5t-28 -48t-43 -27.5t-56 -9q-62 0 -100 36zM114 425q12 -13 28.5 -18.5t36.5 -5.5t37 5.5t29 19t19 36t7 55.5t-7 55.5t-19 36t-29 19t-37 5.5t-36.5 -5.5t-28.5 -19t-19 -36
t-7 -55.5t7 -55.5t19 -36.5z" />
    <glyph glyph-name="onesuperior" unicode="&#xb9;" horiz-adv-x="301" 
d="M133 331v285l-88 -22v46l103 25h37v-334h-52z" />
    <glyph glyph-name="twosuperior" unicode="&#xb2;" horiz-adv-x="330" 
d="M48 332v37l104 105q19 19 32.5 33t21.5 25t12 22t4 24q0 30 -21.5 41t-50.5 11q-23 0 -47.5 -4t-41.5 -8l-4 43q20 6 44.5 9t50.5 3q54 0 87.5 -22.5t33.5 -72.5q0 -38 -23.5 -67t-63.5 -68l-70 -68h159v-43h-227z" />
    <glyph glyph-name="threesuperior" unicode="&#xb3;" horiz-adv-x="330" 
d="M45 376q21 -5 42.5 -9t50.5 -4q17 0 32 3t26.5 10.5t18.5 20.5t7 33q0 18 -7 29.5t-19.5 17.5t-29 8t-35.5 2h-43v37l105 97h-150v44h218v-41l-105 -97h1q23 0 44 -5.5t37 -17t25.5 -30t9.5 -43.5q0 -57 -38.5 -85t-96.5 -28q-32 0 -54.5 3.5t-45.5 10.5z" />
    <glyph glyph-name="Tcommaaccent" unicode="&#x162;" horiz-adv-x="564" 
d="M252 0v612h-232v53h524v-53h-232v-612h-60zM165 -188l83 142h66l-93 -142h-56z" />
    <glyph glyph-name="Eng" unicode="&#x14a;" horiz-adv-x="754" 
d="M116 0v665h52l412 -425v425h58v-607q0 -37 -9 -68t-28 -60.5t-49.5 -60t-73.5 -66.5l-34 43q38 33 64 60.5t42 52.5t23 49t7 50v101l-406 417v-576h-58z" />
    <glyph glyph-name="itilde" unicode="&#x129;" horiz-adv-x="255" 
d="M99 0v479h57v-479h-57zM-16 620q11 31 29.5 49.5t53.5 18.5q19 0 36 -5t32.5 -11.5t29.5 -11.5t27 -5q18 0 23.5 13t10.5 25l46 -14q-9 -37 -27.5 -54.5t-53.5 -17.5q-15 0 -31.5 5t-33.5 11.5t-32 11.5t-27 5q-19 0 -26 -10.5t-12 -23.5z" />
    <glyph glyph-name="longs" unicode="&#x17f;" horiz-adv-x="344" 
d="M121 0v430h-81v49h81v91q0 84 49 123.5t131 39.5q20 0 42 -1.5t41 -4.5l-7 -49q-17 3 -37 4t-39 1q-26 0 -48.5 -5t-39 -18t-26 -35t-9.5 -55v-570h-57z" />
    <glyph glyph-name="tcommaaccent" unicode="&#x163;" horiz-adv-x="365" 
d="M174 101q0 -33 22 -46t51 -13q26 0 50.5 5.5t42.5 10.5l3 -50q-19 -7 -45.5 -11.5t-53.5 -4.5q-25 0 -48 5.5t-40.5 18t-28 33.5t-10.5 53v328h-82v49h82l15 142h42v-142h149v-49h-149v-329zM148 -188l83 142h66l-93 -142h-56z" />
    <glyph glyph-name="eng" unicode="&#x14b;" horiz-adv-x="587" 
d="M99 0v453q19 6 43.5 12t51 11t54.5 8t56 3q38 0 73 -8t62 -26.5t43 -49.5t16 -77v-271q0 -42 -5.5 -72t-21 -57t-43.5 -55.5t-73 -66.5l-33 38q39 34 62 60t36 50t17 48.5t4 54.5v268q0 33 -11 55t-29.5 35t-44.5 18.5t-56 5.5q-37 0 -75 -6.5t-69 -14.5v-416h-57z" />
    <glyph glyph-name="commaaccentcomb" horiz-adv-x="550" 
d="M188 -188l83 142h66l-93 -142h-56z" />
    <glyph glyph-name="apple" horiz-adv-x="1100" 
d="M137 216q-13 1 -26 4.5t-23.5 10t-17 16t-6.5 22.5q0 5 1 12t3 14l153 410q7 16 29 26.5t48 12.5l523 40h5q30 0 42 -38l47 -156l-499 59l-56 -72l217 -33l-123 -351zM169 290q-1 -5 -1.5 -9t-0.5 -7q0 -16 12 -25t31 -11l226 -21l97 265l-188 27l-8 68l71 89l481 -54
l-34 112q-5 14 -17.5 18.5t-24.5 5.5l-452 -34q-16 -1 -33.5 -8.5t-23.5 -26.5zM733 171v348l211 -33l80 -279q1 -2 1 -9q0 -19 -16 -29.5t-42 -10.5zM815 190l151 -12h3q14 0 22.5 8.5t8.5 18.5q0 6 -1 7l-65 211l-119 22v-255zM61 9h25q19 -1 32 10t13 38q0 29 -13 40
t-32 10h-25v-98zM43 -6v128h45q27 0 44.5 -15.5t18.5 -49.5q-1 -33 -18.5 -48t-44.5 -15h-45zM233 52q-3 21 -23 21q-12 0 -19 -8t-7 -21zM185 32q1 -13 8.5 -19t18.5 -6q9 -1 15.5 3t11.5 11l12 -6q-6 -10 -15.5 -16t-23.5 -6q-21 0 -34 12.5t-14 35.5q1 19 13 32t33 14
q22 -1 32 -13t11 -32zM280 21q8 -14 25 -14q22 0 19 13q1 7 -7.5 9.5t-19 5.5t-19.5 8t-9 17t10 19t27 8q25 -1 36 -18l-12 -8q-6 12 -25 12q-18 0 -18 -13q0 -7 8.5 -9.5t19 -5t19 -8t8.5 -17.5q0 -13 -9.5 -20t-26.5 -7q-15 0 -25 6t-15 16zM374 105q-10 0 -10 8q0 9 10 9
q9 0 11 -9q-2 -8 -11 -8zM365 -6v92h18v-92h-18zM474 69q-7 4 -21 4q-12 0 -20 -8t-8 -24q0 -32 26 -32q17 0 23 13v47zM421 -17q5 -8 11.5 -12t17.5 -4q26 0 24 24v16q-8 -13 -27 -13q-20 0 -30 12.5t-11 34.5q1 23 14.5 34.5t33.5 11.5q26 -2 39 -11v-84q0 -39 -43 -39
q-28 0 -41 21zM525 -6v92h16v-17q10 16 32 18q31 -1 32 -31v-62h-19v62q0 17 -18 17q-10 0 -15.5 -4.5t-10.5 -11.5v-63h-17zM694 52q-3 21 -23 21q-13 0 -20.5 -8t-7.5 -21zM645 32q3 -25 28 -25q18 -2 25 14l14 -6q-5 -10 -15 -16t-24 -6q-47 0 -47 48q0 19 12 32t33 14
q22 -1 32.5 -13t10.5 -32zM796 63q-8 10 -23 10q-13 0 -20 -9t-7 -24t7 -24t20 -9q15 0 23 13v43zM802 -7q0 3 -1 6.5t-1 7.5q-5 -6 -12.5 -10t-18.5 -4q-19 0 -30.5 13t-11.5 35q0 21 13 33t30 13q20 -1 26 -10v49h19v-108q0 -5 0.5 -12t2.5 -12zM914 20q10 -13 24 -13
t20.5 9.5t6.5 24.5q0 32 -27 32q-8 0 -13.5 -4.5t-10.5 -10.5v-38zM892 -6q2 6 3.5 12.5t1.5 11.5v108h17v-54q9 13 31 15q19 -1 28 -13t9 -33q0 -22 -10.5 -35t-28.5 -13q-23 0 -32 14q0 -8 -3 -14zM992 -35q23 1 31 21l3 7l-35 93h18l27 -75l27 75h18l-40 -100
q-6 -17 -16 -25t-29 -9zM139 -189v113h-39v14h97l-1 -14h-39v-113h-18zM305 -163q6 -13 24 -13q13 0 19 9t6 24q0 32 -24 32q-16 0 -25 -14v-38zM287 -230v132l15 1v-15q12 14 33 16q20 -1 29 -13.5t9 -33.5q1 -21 -9 -34.5t-32 -13.5q-10 0 -16.5 4t-10.5 8v-50zM467 -177
q-12 -13 -34 -14q-21 1 -33 14t-13 34q1 20 13 33t33 14q22 -1 34 -14t13 -33q-1 -21 -13 -34zM413 -167q7 -9 20 -9t20 9t7 24q0 14 -7 23t-20 9t-20 -9t-7 -23q0 -15 7 -24zM520 -163q8 -13 23 -13q14 0 20 9t6 24t-5.5 23.5t-19.5 8.5q-15 0 -24 -14v-38zM502 -230v132
l16 1v-15q10 14 33 16q18 -1 27.5 -13.5t9.5 -33.5q2 -21 -9 -34.5t-31 -13.5q-9 0 -16 4t-12 8v-50zM612 -189v131l18 1v-54q10 13 31 15q31 -1 32 -31v-62h-19v62q0 16 -18 16t-26 -16v-62h-18zM777 -191q-1 4 -1 7.5t-2 7.5q-4 -6 -11 -10.5t-18 -4.5q-32 0 -32 26
q-1 17 19 24q5 2 17 4t22 3v7q0 7 -4 11.5t-16 4.5q-10 0 -15 -3.5t-9 -8.5l-13 8q6 7 15.5 12.5t24.5 6.5q20 -2 27.5 -11t7.5 -21v-37q0 -5 1 -11.5t3 -11.5zM771 -146q-8 -1 -17.5 -3t-14.5 -3q-9 -4 -9 -11q0 -13 18 -13q17 0 23 14v16zM878 -115q-8 6 -21 4
q-13 0 -21 -7.5t-8 -24.5q0 -31 27 -32q16 2 23 14v46zM825 -200q5 -8 11.5 -12t17.5 -4q26 0 24 24v16q-8 -13 -28 -13q-19 0 -29 12.5t-10 33.5q0 23 13.5 35t33.5 12q11 -1 21 -3.5t16 -7.5v-84q0 -39 -41 -39q-31 0 -41 21zM987 -131q-1 20 -23 20q-12 0 -19 -8t-7 -20z
M938 -151q2 -13 9.5 -19t18.5 -6q18 -1 25 13l13 -5q-5 -10 -14 -16.5t-24 -6.5q-21 0 -33.5 12.5t-13.5 35.5q1 20 13 33t32 14q21 -1 31.5 -13t12.5 -32zM180 -219q23 1 31 21l4 7l-36 93h18l27 -75l27 75h18l-40 -100q-6 -17 -16 -25t-29 -9z" />
    <glyph glyph-name="dotlessj" unicode="&#x237;" horiz-adv-x="255" 
d="M-20 -158q39 34 62 60t36 50t17 48.5t4 54.5v424h57v-424q0 -42 -5.5 -72t-21 -57t-43.5 -55.5t-73 -66.5z" />
    <glyph glyph-name="uni03BC" unicode="&#x3bc;" horiz-adv-x="571" 
d="M90 -188v667h57v-318q0 -34 11.5 -57t30 -36.5t43 -19.5t51.5 -6q36 0 73.5 6t61.5 13v418h57v-453q-39 -13 -90.5 -23.5t-103.5 -10.5q-41 0 -75 10t-59 35v-225h-57z" />
    </font>
</defs>
</svg>
